Fantasia
TЁЯRA

EXTREME

Level: 9
BPM: 165
Notes: 717

1
口口口口 |----|
口口口口 |----|
口口口口 |----|
口口口口 |----|
2
①①①① |①--②|
口口②口 |--③-|
口④口④ |④---|
⑤口③⑤ |⑤---|
3
口口口口 |①--②|
①②口① |--③-|
③口③口
口口口口

口⑤口④
口⑥口口
口口口④ |④---|
口口口口 |--⑤⑥|
4
口口口口 |①--②|
④口口口 |--③-|
口①②⑤ |④---|
③⑤③① |⑤---|
5
①①①① |①--②|
口口②口 |--③-|
口③口口 |④---|
口④④口 |----|
6
①①①① |①--②|
口口②口 |--③-|
口口口口
口口③口

口⑤口口
口⑥口口
④口口④ |④---|
口口口口 |--⑤⑥|
7
口口口口 |①--②|
口口口口 |--③-|
口①①口
②口口③

口口口口
口口口口
④⑤口④ |④---|
口口口口 |--⑤-|
8
①④口① |①--②|
口口②口 |--③-|
口⑤⑥口 |④--⑤|
口口③④ |--⑥-|
9
口④①① |①--②|
③口口② |--③-|
②口口③ |④---|
①①④口 |----|
10
⑦⑧③① |①-②-|
⑤⑥④② |③-④-|
③④⑦⑤ |⑤-⑥-|
①②⑧⑥ |⑦-⑧-|
11
⑧⑦③① |①-②-|
⑥⑤④② |③-④-|
③④⑤⑥ |⑤-⑥-|
①②⑦⑧ |⑦-⑧-|
12
⑦⑧③① |①-②-|
⑤⑥④② |③-④-|
③④⑦⑤ |⑤-⑥-|
①②⑧⑥ |⑦-⑧-|
13
⑦⑧③① |①-②-|
⑤⑥④② |③-④-|
③④⑦⑤ |⑤-⑥-|
①②⑧⑥ |⑦-⑧-|
14
口口口口 |①--②|
口④④① |--③-|
①③口口 |④---|
口②⑤⑤ |⑤---|
15
口口口口 |①---|
口⑤②口 |--②③|
口口③口 |④---|
①①④口 |--⑤-|
16
④④③③ |①---|
口口口口 |②---|
口口口口 |③---|
①①②② |④---|
17
口口口口 |①---|
口②口口 |--②-|
口口口口
①口口①

口口口口
⑥口口⑥
口③③口 |③-④-|
⑤④④⑤ |⑤-⑥-|
18
口①①口 |①---|
口口口口 |--②-|
②口口口
口口②口

口⑤⑤口
口口口口
口④④③ |③--④|
口③口口 |--⑤-|
19
④口口④ |①--②|
②⑤⑤① |--③-|
口口口口 |④---|
①③③② |--⑤-|
20
③①①③ |①---|
⑤口口④ |--②-|
②①①口 |③--④|
口口口口 |--⑤-|
21
⑥③③⑥ |①-②-|
⑧⑤⑤⑧ |③-④-|
⑦④④⑦ |⑤-⑥-|
①②②① |⑦-⑧-|
22
口口②② |①---|
口口口口 |--②-|
口口口口
①①①①

口口口口
③口口口
口④口口 |--③-|
口口⑤口 |④-⑤-|
23
口口②口 |①---|
⑤口③① |--②③|
④口④口 |④---|
①口⑤口 |⑤---|
24
⑤①⑤① |①-②-|
⑦③⑦③ |③-④-|
⑧④⑧④ |⑤-⑥-|
⑥②⑥② |⑦-⑧-|
25
口口口口 |①---|
口①口口 |②---|
口②口②
口①口口

④③④③
口④口口
口口口口 |③---|
口口口口 |④---|
26
口口口口 |①---|
②口①② |--②③|
③①口③ |④---|
④口①④ |----|
27
口③④口 |①---|
口②①口 |②---|
口③③口 |③---|
口①①口 |④---|
28
②④口① |①--②|
③口④③ |--③-|
②口口① |④---|
口口口口 |----|
29
口口口口 |①---|
口①口口 |--②-|
①②口①
口口①口

口④口⑥
口⑤⑤③
⑥口口口 |③-④-|
口口口口 |⑤-⑥-|
30
③③③口 |①--②|
④④④口 |--③-|
口②②② |④---|
①①①口 |----|
31
口口②口 |①---|
⑤口③① |--②③|
④口④口 |④---|
①口⑤口 |⑤---|
32
⑤①⑤① |①-②-|
口③⑦③ |③-④-|
口④⑧④ |⑤-⑥-|
⑥②⑥② |⑦-⑧-|
33
口口口① |①---|
①口口① |----|
①口口口
口口口口

口口口口
口口口口
④口③② |②--③|
②③口④ |--④-|
34
①②④③ |①--②|
①②口口 |--③-|
口口④③ |④---|
口口口口 |----|
35
口①④口 |①--②|
①⑤②④ |--③-|
口口口口 |④--⑤|
口③⑥口 |--⑥-|
36
口①口口 |①---|
①⑤⑤口 |--②-|
口④③口 |③--④|
口②④口 |--⑤-|
37
口①①口 |①---|
①口口① |----|
口口口口
口口口口

②口②口
口口口口
口口口口 |----|
口口口口 |②---|
38
④③口③ |①---|
④①③① |②---|
口②①④ |③---|
②口②④ |④---|
39
⑨⑦⑧⑩ |①②③④|
⑪⑤⑥⑫ |⑤⑥⑦⑧|
⑬③④⑭ |⑨⑩⑪⑫|
⑮①②⑯ |⑬⑭⑮⑯|
40
⑨⑦⑧⑩ |①②③④|
⑪⑤⑥⑫ |⑤⑥⑦⑧|
⑬③④⑭ |⑨⑩⑪⑫|
⑮①②⑯ |⑬⑭⑮⑯|
41
口口口口 |①-②-|
⑤口②⑥ |③-④-|
口①④口 |⑤-⑥-|
⑦③①⑧ |⑦-⑧-|
42
口①②口 |①②③④|
口③④口 |⑤⑥⑦⑧|
口⑤⑥口
口⑦⑧口

口⑩口口
口⑪口口
⑨口口⑨ |⑨---|
口口口口 |⑩-⑪-|
43
口口⑧① |①-②-|
③⑦②口 |③-④-|
口⑥④口 |⑤-⑥-|
⑤口⑤口 |⑦-⑧-|
44
③口口③ |①---|
①口口① |②---|
口口口口 |③---|
口②②口 |----|
45
口⑤④口 |①-②-|
口③⑥口 |③-④-|
口⑦②口 |⑤-⑥-|
⑧⑧①① |⑦-⑧-|
46
口⑤④③ |①-②-|
⑥口口② |③-④-|
⑦口⑧① |⑤-⑥-|
口⑦①口 |⑦-⑧-|
47
③口口③ |①-②-|
口④④口 |③---|
口口口② |④---|
①④④① |----|
48
①口口① |①---|
口口口② |--②-|
口①①②
口口口口

口口口口
口③口口
口④⑤口 |--③-|
口口口口 |④-⑤-|
49
口①口① |①---|
①口①口 |--②③|
口口口口
②口③口

④⑤④⑤
⑤④⑤④
口口口口 |④---|
口口口口 |⑤---|
50
口口口口 |①---|
口口口口 |----|
①口①口 |----|
口①②① |②---|
51
口口口口 |①---|
口①口口 |②---|
口口口②
口①口口

口③口③
口④口口
口口口口 |③---|
口口口口 |④---|
52
口口口口 |①---|
②口口口 |--②③|
③口口口 |④---|
④①①口 |----|
53
口口④口 |①---|
口②口口 |②---|
口③③口 |③---|
口①①口 |④---|
54
口④口口 |①--②|
③口④③ |--③-|
②口口① |④---|
口口口口 |----|
55
口④口⑥ |①---|
口口⑤③ |--②-|
⑥②口口 |③-④-|
①①①① |⑤-⑥-|
56
③口③口 |①--②|
④口④口 |--③-|
口②②② |④---|
①①①口 |----|
57
口口②口 |①---|
口①③① |--②③|
口口口口
①口①口

口口口口
⑤口口口
④④④口 |④---|
口口⑤口 |⑤---|
58
口①口① |①-②-|
口③口③ |③-④-|
口④口④
口②口②

⑤⑧⑤口
口口⑦口
口口⑧口 |⑤-⑥-|
⑥口⑥口 |⑦-⑧-|
59
口口口① |①---|
①口口① |--②-|
①口口口
口口②口

口口口口
口口口口
⑤口④③ |③--④|
③④口⑤ |--⑤-|
60
①②①② |①--②|
①②①② |--③-|
口③④④ |④---|
④④③口 |----|
61
④①④① |①--②|
①⑤②④ |--③-|
口口口口 |④--⑤|
口③⑥口 |--⑥-|
62
口①口① |①---|
①⑤⑤口 |--②-|
口④③口 |③--④|
口②④口 |--⑤-|
63
①①①① |①---|
①口口① |----|
口口口口
口口口口

②口②口
口口口口
口口口口 |----|
口口口口 |②---|
64
口口口口 |①---|
口①口① |②---|
口②①口
②口②口

口③④③
④口③口
口口④口 |③---|
口口口口 |④---|
65
⑤③⑥④ |①---|
口②口③ |--②-|
⑥④⑤② |③-④-|
①①①① |⑤-⑥-|
66
④④④④ |①---|
口②口③ |②---|
口③口② |③---|
①①①① |④---|
67
⑤③⑥④ |①---|
口②口③ |--②-|
⑥④⑤② |③-④-|
①①①① |⑤-⑥-|
68
④④④④ |①---|
口②口③ |②---|
口③口② |③---|
①①①① |④---|
69
⑤③⑥④ |①---|
口②口③ |--②-|
⑥④⑤② |③-④-|
①①①① |⑤-⑥-|
70
④④④④ |①---|
口②口③ |②---|
口③口② |③---|
①①①① |④---|
71
口口口口 |①---|
口口口口 |----|
口口口口 |----|
①①①① |----|

最終更新:2012年11月06日 22:03