SWEET ANGEL
古川もとあき

EXTREME

Level: 9
BPM: 150
Notes: 641

1
口口口口 |----|
口口口口 |----|
口口口口 |----|
口口口口 |----|
2
口口口口 |①---|
①口口③ |②-③-|
口②口口
③口口①

口口口口
⑦⑥⑥口
⑤口④口 |④-⑤-|
口口口口 |⑥-⑦-|
3
①口口③ |①---|
口口口口 |②-③-|
③口口①
口②口口

口口口口
口口口⑤
口⑥⑥⑦ |④-⑤-|
口口④口 |⑥-⑦-|
4
③口①口 |①---|
②口口口 |②-③-|
口口口口
①口③口

口口⑦口
口⑥⑥④
口口⑤口 |④-⑤-|
口口口口 |⑥-⑦-|
5
口①口③ |①---|
口口口口 |②-③-|
口②口口
口③口①

口⑦口口
口⑥⑥口
口口④口 |④-⑤-|
口口⑤口 |⑥-⑦-|
6
口口口口 |①---|
①口口③ |②-③-|
口口②口
③口口①

口口口口
⑦⑥⑥口
⑤④口口 |④-⑤-|
口口口口 |⑥-⑦-|
7
①口口③ |①---|
口口口口 |②-③-|
③口口①
口②口口

口口口口
口口口⑤
口⑥⑥⑦ |④-⑤-|
口口④口 |⑥-⑦-|
8
③口①口 |①---|
口②口口 |②-③-|
口口口口
①口③口

口⑤⑦口
口口④口
口⑥⑥口 |④-⑤-|
口口口口 |⑥-⑦-|
9
口③口① |①---|
口口②口 |②-③-|
口口口口
口①口③

口口口口
口⑥口口
口⑥④口 |④-⑤-|
口⑦⑤口 |⑥-⑦-|
10
口口口口 |①---|
口口口① |----|
①口口口
口口口口

口③②口
②口口③
④口口④ |--②-|
口口口口 |③-④-|
11
③口口② |①---|
口④④口 |②-③-|
口④④口 |--④-|
②①①③ |----|
12
口③②口 |①---|
②口口③ |--②-|
口口口① |----|
口①口口 |③---|
13
口口口口 |①---|
口口口口 |--②-|
①②②口 |----|
②口①② |----|
14
口①②口 |①---|
①口口② |--②-|
③口口口 |----|
口③口口 |③---|
15
口口口口 |①---|
口口③口 |--②-|
口③口① |----|
②口①② |③---|
16
口口口口 |①---|
③①口② |--②-|
②口①③ |----|
口口口口 |③---|
17
口①②口 |①---|
口①②口 |----|
口②①口 |②---|
口②①口 |----|
18
口口口口 |--①-|
⑦④⑤⑥ |②-③-|
③口口口 |④-⑤-|
口②①口 |⑥-⑦-|
19
⑥⑤④⑦ |--①-|
口③口口 |②-③-|
口①②口 |④-⑤-|
口口口口 |⑥-⑦-|
20
⑬⑭⑮⑯ |①②③④|
①②⑦⑧ |⑤⑥⑦⑧|
③④⑨⑩ |⑨⑩⑪⑫|
⑤⑥⑪⑫ |⑬⑭⑮⑯|
21
⑨⑪⑬⑮ |①②③④|
⑩⑫⑭⑯ |⑤⑥⑦⑧|
①③⑤⑦ |⑨⑩⑪⑫|
②④⑥⑧ |⑬⑭⑮⑯|
22
⑬⑭⑮⑯ |①②③④|
⑨⑩⑪⑫ |⑤⑥⑦⑧|
⑧⑦⑥⑤ |⑨⑩⑪⑫|
①②③④ |⑬⑭⑮⑯|
23
⑯⑮⑭⑬ |①②③④|
⑫⑪⑩⑨ |⑤⑥⑦⑧|
⑧⑦⑥⑤ |⑨⑩⑪⑫|
④③②① |⑬⑭⑮⑯|
24
⑮⑬⑪⑨ |①②③④|
⑯⑭⑫⑩ |⑤⑥⑦⑧|
⑧⑦⑥⑤ |⑨⑩⑪⑫|
①②③④ |⑬⑭⑮⑯|
25
口口口口 |①--②|
口口口口 |-③④-|
⑥⑤①② |⑤--⑥|
⑦⑧④③ |-⑦⑧-|
26
口③②① |①-②-|
口口③② |③-④-|
⑥⑦④口 |--⑤-|
⑤⑥⑦④ |⑥-⑦-|
27
②口口② |①---|
口③①③ |②-③-|
口口④① |--④-|
口口口⑤ |⑤---|
28
①②③口 |①-②-|
②③口口 |③-④-|
口④⑦⑥ |--⑤-|
④⑦⑥⑤ |⑥-⑦-|
29
②②④口 |①---|
③①口④ |②---|
①口口③ |③---|
口口口口 |④---|
30
④口⑥⑤ |①-②-|
口④⑦⑥ |③-④-|
②③口⑦ |--⑤-|
①②③口 |⑥-⑦-|
31
④口口口 |①---|
口口口口 |②-③-|
②①③口 |--④-|
③②①④ |----|
32
口③④口 |①---|
②口口③ |②---|
①口口④ |③---|
口②①口 |④---|
33
①口口① |①---|
口①①口 |----|
口②②口 |②---|
②口口② |----|
34
口口口口 |①---|
口①④口 |--②-|
③②③② |--③-|
口④①口 |④---|
35
口②①③ |①---|
①口口口 |②-③-|
口②口③
口口口口

口口⑤口
口口④⑤
口口口口 |--④-|
口口④口 |⑤---|
36
口⑦⑦口 |①-②-|
⑥③④⑥ |③-④-|
③①②④ |--⑤-|
①⑤⑤② |⑥-⑦-|
37
①口口① |①---|
口口口口 |②---|
④③②④ |③---|
②④④③ |④---|
38
④③④③ |①-②-|
②①②① |③-④-|
⑤⑥⑦口 |--⑤-|
⑥⑤口⑦ |⑥-⑦-|
39
③④③④ |①---|
口②②口 |②-③-|
口口口① |--④-|
口口①口 |----|
40
④④③③ |①---|
②②①① |②---|
①①②② |③---|
③③④④ |④---|
41
口口口口 |①---|
②①①② |----|
口②②口 |②---|
口口口口 |----|
42
⑯⑮⑭⑬ |①②③④|
⑨⑩⑪⑫ |⑤⑥⑦⑧|
⑧⑦⑥⑤ |⑨⑩⑪⑫|
①②③④ |⑬⑭⑮⑯|
43
⑯⑮⑭⑬ |①②③④|
⑫⑪⑩⑨ |⑤⑥⑦⑧|
⑧⑦⑥⑤ |⑨⑩⑪⑫|
④③②① |⑬⑭⑮⑯|
44
⑬⑭⑮⑯ |①②③④|
⑨⑩⑪⑫ |⑤⑥⑦⑧|
⑧⑦⑥⑤ |⑨⑩⑪⑫|
④③②① |⑬⑭⑮⑯|
45
⑯⑮⑭⑬ |①②③④|
⑫⑪⑩⑨ |⑤⑥⑦⑧|
⑧⑦⑥⑤ |⑨⑩⑪⑫|
④③②① |⑬⑭⑮⑯|
46
⑯⑮⑭⑬ |①②③④|
⑨⑩⑪⑫ |⑤⑥⑦⑧|
⑧⑦⑥⑤ |⑨⑩⑪⑫|
①②③④ |⑬⑭⑮⑯|
47
⑯⑮⑭⑬ |①②③④|
⑫⑪⑩⑨ |⑤⑥⑦⑧|
⑧⑦⑥⑤ |⑨⑩⑪⑫|
④③②① |⑬⑭⑮⑯|
48
⑬⑭⑮⑯ |①②③④|
⑨⑩⑪⑫ |⑤⑥⑦⑧|
⑧⑦⑥⑤ |⑨⑩⑪⑫|
④③②① |⑬⑭⑮⑯|
49
⑯⑮⑭⑬ |①②③④|
⑫⑪⑩⑨ |⑤⑥⑦⑧|
⑧⑦⑥⑤ |⑨⑩⑪⑫|
④③②① |⑬⑭⑮⑯|
50
口口口口 |①---|
⑦⑥⑥③ |②-③-|
⑤②④口 |④-⑤-|
③口口① |⑥-⑦-|
51
①口口③ |①---|
口口口口 |②-③-|
③口口①
口②口口

口口口口
口口口⑤
口⑥⑥⑦ |④-⑤-|
口口④口 |⑥-⑦-|
52
③口①口 |①---|
口②口口 |②-③-|
口口口口
①口③口

口口⑦口
口口④口
口⑥⑥口 |④-⑤-|
口⑤口口 |⑥-⑦-|
53
口①口③ |①---|
口口口口 |②-③-|
②口口口
口③口①

口⑦口口
口⑥⑥口
口口口④ |④-⑤-|
口口⑤口 |⑥-⑦-|
54
口口口口 |①---|
①口口③ |②-③-|
口②口口
③口口①

口口口口
⑦⑥⑥口
⑤口④口 |④-⑤-|
口口口口 |⑥-⑦-|
55
①口口③ |①---|
口口口口 |②-③-|
③口口①
口②口口

口口口口
口口口⑤
口⑥⑥⑦ |④-⑤-|
口口④口 |⑥-⑦-|
56
③口①口 |①---|
口②口口 |②-③-|
口口口口
①口③口

口⑤⑦口
口口④口
口⑥⑥口 |④-⑤-|
口口口口 |⑥-⑦-|
57
口③口① |①---|
口②口口 |②-③-|
口口口口
口①口③

口口口口
口口④口
口⑥⑥口 |④-⑤-|
口⑦⑤口 |⑥-⑦-|
58
③口口③ |①---|
口②④口 |②-③-|
①⑤⑤① |④---|
口⑥⑥口 |⑤-⑥-|
59
②口口④ |①---|
①③③① |②-③-|
口口口口 |④---|
③口口③ |----|
60
③口口③ |①---|
②③③② |--②-|
①②②① |----|
口①①口 |③---|
61
口①①口 |①---|
口口口口 |----|
①口口① |----|
口口口口 |----|


不确定度: 0

最終更新:2012年11月11日 16:51