隅田川夏恋歌
seiya-murai feat.ALT

BASIC

Level: 5
BPM: 180
Notes: 379

1
口口口口 |----|
口口口口 |----|
口口口口 |----|
口口口口 |----|
2
口①①口 |①---|
口口口口 |----|
口口口口 |----|
口口口口 |----|
3
口口口口 |①---|
口口口口 |----|
口①①口 |----|
口①①口 |----|
4
口口口口 |①---|
①口口① |----|
②口口② |②---|
口口口口 |----|
5
口③③口 |①---|
口②②口 |②---|
口①①口 |③---|
口口口口 |----|
6
口口口口 |①---|
①口口② |----|
口口口口 |②---|
口口口口 |----|
7
口口口口 |①---|
口①①口 |②---|
口②②口 |③---|
口③③口 |----|
8
口①①口 |①---|
口口口口 |----|
口口口口 |②---|
口②②口 |----|
9
口口口口 |①---|
口③②① |②---|
口③②① |③---|
口口口口 |----|
10
口①①口 |①---|
口口口口 |----|
口口口口 |②---|
口②②口 |----|
11
口口口口 |①---|
①②③口 |②---|
①②③口 |③---|
口口口口 |----|
12
①口口① |①---|
口口口口 |----|
口口口口 |----|
口口口口 |----|
13
口①②口 |--①-|
③口口③ |②---|
④口口④ |③---|
口口口口 |④---|
14
口口口口 |①---|
口②②口 |----|
口口口口 |②---|
①口口① |----|
15
口①口口 |----|
口②口口 |----|
口口②口 |①---|
口口①口 |②---|
16
口口口口 |①---|
口口①口 |----|
口①口口 |----|
口口口口 |----|
17
口①②口 |--①-|
③口口③ |②---|
④口口④ |③---|
口口口口 |④---|
18
口②②口 |①---|
口口口口 |----|
口口口口 |②---|
口①①口 |----|
19
口口口口 |①---|
①②③口 |②---|
口③②① |③---|
口口口口 |----|
20
口口口口 |①---|
①口口① |----|
②口口② |②---|
口口口口 |----|
21
口③③口 |①---|
口②②口 |②---|
口①①口 |③---|
口口口口 |----|
22
口口口口 |①---|
①口口② |----|
口口口口 |②---|
口口口口 |----|
23
口口口口 |①---|
口①①口 |②---|
口②②口 |③---|
口③③口 |----|
24
口①①口 |①---|
口口口口 |----|
口口口口 |②---|
口②②口 |----|
25
口口口口 |①---|
口③②① |②---|
口③②① |③---|
口口口口 |----|
26
口①①口 |①---|
口口口口 |----|
口口口口 |②---|
口②②口 |----|
27
口口口口 |①---|
①②③口 |②---|
①②③口 |③---|
口口口口 |----|
28
①口口① |①---|
口口口口 |----|
口口口口 |----|
口口口口 |----|
29
口①②口 |--①-|
③口口③ |②---|
④口口④ |③---|
口口口口 |④---|
30
口口口口 |①---|
口②②口 |----|
口口口口 |②---|
①口口① |----|
31
口①口口 |----|
口②口口 |----|
口口②口 |①---|
口口①口 |②---|
32
口口口口 |①---|
口口①口 |----|
口①口口 |----|
口口口口 |----|
33
口①②口 |--①-|
③口口③ |②---|
④口口④ |③---|
口口口口 |④---|
34
口②②口 |①---|
口口口口 |----|
口口口口 |②---|
口①①口 |----|
35
口口口④ |①---|
①②③口 |②---|
口③②① |③---|
口口口口 |④---|
36
④口②口 |①---|
口③口① |②---|
口口口口 |③---|
口口口口 |④---|
37
口口口口 |①---|
口口口口 |②---|
①口③口 |③---|
口②口④ |④---|
38
口①①口 |①---|
口口口口 |----|
口口口口 |②---|
口②②口 |----|
39
③口口口 |①---|
口①①口 |----|
口②②口 |②---|
口口口口 |③---|
40
口②口④ |①---|
①口③口 |②---|
口口口口 |③---|
口口口口 |④---|
41
口口口口 |①---|
口口口口 |②---|
口③口① |③---|
④口②口 |④---|
42
口①①口 |①---|
③口口③ |----|
口口口口 |②---|
口②②口 |③---|
43
口口口③ |①---|
口①①口 |----|
口②②口 |②---|
口口口口 |③---|
44
④口②口 |①---|
口③口① |②---|
口口口口 |③---|
口口口口 |④---|
45
口口口口 |①---|
口口口口 |②---|
①口③口 |③---|
口②口④ |④---|
46
口①①口 |①---|
口口口口 |----|
口口口口 |②---|
口②②口 |----|
47
③口口口 |①---|
口①①口 |----|
口②②口 |②---|
口口口口 |③---|
48
口②口④ |①---|
①口③口 |②---|
口口口口 |③---|
口口口口 |④---|
49
口口口口 |①---|
口口口口 |②---|
口③口① |③---|
④口②口 |④---|
50
口①①口 |①---|
③口口③ |----|
口口口口 |②---|
口②②口 |③---|
51
口①①口 |①---|
口②②口 |----|
口③③口 |②---|
口口口口 |③---|
52
口口口口 |①---|
口口口口 |----|
口口口口 |----|
口①①口 |----|
53
口①①口 |①---|
口②②口 |②---|
口③③口 |③---|
口④④口 |④---|
54
口口口口 |①---|
口口口口 |----|
口口口口 |----|
①口口① |----|
55
口④④口 |①---|
口③③口 |②---|
口②②口 |③---|
口①①口 |④---|
56
①口口① |①---|
口口口口 |----|
口口口口 |----|
口口口口 |----|
57
口①①口 |①---|
口②②口 |②---|
口③③口 |③---|
口④④口 |④---|
58
④口口口 |①---|
口口口③ |②---|
②口口口 |③---|
口口口① |④---|
59
口①①④ |①---|
口②②口 |②---|
口③③口 |③---|
口口口口 |④---|
60
④口②口 |①---|
口③口① |②---|
口口口口 |③---|
口口口口 |④---|
61
口口口口 |①---|
口口口口 |②---|
①口③口 |③---|
口②口④ |④---|
62
口①①口 |①---|
口口口口 |----|
口口口口 |②---|
口②②口 |----|
63
③口口口 |①---|
口①①口 |----|
口②②口 |②---|
口口口口 |③---|
64
口②口④ |①---|
①口③口 |②---|
口口口口 |③---|
口口口口 |④---|
65
口口口口 |①---|
口口口口 |②---|
口③口① |③---|
④口②口 |④---|
66
口①①口 |①---|
③口口③ |----|
口口口口 |②---|
口②②口 |③---|
67
口口口③ |①---|
口①①口 |----|
口②②口 |②---|
口口口口 |③---|
68
④口②口 |①---|
口③口① |②---|
口口口口 |③---|
口口口口 |④---|
69
口口口口 |①---|
口口口口 |②---|
①口③口 |③---|
口②口④ |④---|
70
口①①口 |①---|
口口口口 |----|
口口口口 |②---|
口②②口 |----|
71
③口口口 |①---|
口①①口 |----|
口②②口 |②---|
口口口口 |③---|
72
口②口④ |①---|
①口③口 |②---|
口口口口 |③---|
口口口口 |④---|
73
口口口口 |①---|
口口口口 |②---|
口③口① |③---|
④口②口 |④---|
74
口①①口 |①---|
③口口③ |----|
口口口口 |②---|
口②②口 |③---|
75
口①①口 |①---|
口②②口 |----|
口③③口 |②---|
口口口口 |③---|
76
口①①口 |①---|
④口口④ |②---|
②口口② |③---|
口③③口 |④---|
77
口①①口 |①---|
口②②口 |----|
口③③口 |②---|
口口口口 |③---|
78
口口口口 |①---|
口口口口 |----|
口口口口 |----|
口①①口 |----|
79
口①①口 |①---|
口②②口 |②---|
口③③口 |③---|
口④④口 |④---|
80
口口口口 |①---|
口口口口 |----|
口口口口 |----|
①口口① |----|
81
口④④口 |①---|
口③③口 |②---|
口②②口 |③---|
口①①口 |④---|
82
①口口口 |----|
口口②口 |①---|
口③口口 |②---|
口口口口 |③---|
83
口口口口 |①---|
口②口口 |②---|
口④口③ |③---|
口口口① |④---|


不确定度: 0

最終更新:2012年11月11日 16:51