隅田川夏恋歌
seiya-murai feat.ALT

ADVANCED

Level: 7
BPM: 180
Notes: 536

1
口口口口 |----|
口口口口 |----|
口口口口 |----|
口口口口 |----|
2
口口口口 |①---|
①口口口 |--②-|
②口口口 |----|
③口口口 |③---|
3
口③④口 |①---|
口口口口 |--②-|
口②②口 |----|
口①①口 |③-④-|
4
①口口② |①---|
口口③口 |--②③|
口口口④ |④---|
口⑤⑤口 |--⑤-|
5
①②口口 |①-②-|
③④口口 |③-④-|
口口口口 |--⑤-|
口⑦⑥⑤ |⑥-⑦-|
6
⑤口口② |①---|
口口③口 |--②③|
口口口④ |④---|
①口口口 |--⑤-|
7
口①口口 |①-②-|
②③口口 |③-④-|
④⑤口口 |⑤---|
口口⑦⑥ |⑥-⑦-|
8
口口口② |①---|
口口③口 |--②③|
口口口口
口①口口

口口口口
口口口口
口口口④ |④---|
口⑤⑤口 |--⑤-|
9
①②⑤⑥ |①-②-|
③④⑦口 |③-④-|
口口口口 |--⑤-|
口口口口 |⑥-⑦-|
10
②⑤口口 |①---|
口③口① |--②③|
④口口口 |④---|
口口口口 |--⑤-|
11
口口①口 |①-②-|
口④⑤口 |③-④-|
口②③口 |⑤---|
口⑦⑥口 |⑥-⑦-|
12
口口口口 |①---|
口口口口 |----|
口口口口 |----|
①口口口 |----|
13
①口口口 |--①-|
②口口⑦ |②-③-|
③口口⑥ |④-⑤-|
口④⑤口 |⑥-⑦-|
14
口②口① |①---|
口口③口 |--②③|
口④口口 |④---|
口口口口 |----|
15
口口口口 |----|
口口④口 |----|
口口③② |①-②-|
口口口① |③-④-|
16
口口①口 |①---|
口口口口 |----|
口口口口 |----|
口口口口 |----|
17
①⑤口② |--①-|
③口⑥④ |②-③-|
口⑦口口 |④-⑤-|
口口口口 |⑥-⑦-|
18
⑤⑤④④ |①---|
③⑥口口 |②-③-|
口口②② |④---|
①①口口 |⑤-⑥-|
19
口⑦⑥口 |①-②-|
口口⑤⑤ |③-④-|
②②④④ |⑤---|
①①③③ |⑥-⑦-|
20
①口口② |①---|
口口③口 |--②③|
口口口④ |④---|
口⑤⑤口 |--⑤-|
21
①②口口 |①-②-|
③④口口 |③-④-|
口口口口 |--⑤-|
口⑦⑥⑤ |⑥-⑦-|
22
⑤口口② |①---|
口口③口 |--②③|
口口口④ |④---|
①口口口 |--⑤-|
23
口①口口 |①-②-|
②③口口 |③-④-|
④⑤口口 |⑤---|
口口⑦⑥ |⑥-⑦-|
24
口口口② |①---|
口口③口 |--②③|
口口口口
口①口口

口口口口
口口口口
口口口④ |④---|
口⑤⑤口 |--⑤-|
25
①②⑤⑥ |①-②-|
③④⑦口 |③-④-|
口口口口 |--⑤-|
口口口口 |⑥-⑦-|
26
②⑤口口 |①---|
口③口① |--②③|
④口口口 |④---|
口口口口 |--⑤-|
27
口口①口 |①-②-|
口④⑤口 |③-④-|
口②③口 |⑤---|
口⑦⑥口 |⑥-⑦-|
28
口口口口 |①---|
口口口口 |----|
口口口口 |----|
①口口口 |----|
29
口⑤④口 |--①-|
⑥口口③ |②-③-|
⑦口口② |④-⑤-|
口口口① |⑥-⑦-|
30
口口口口 |①---|
口②口口 |--②③|
口口③口 |④---|
①④口口 |----|
31
口口口口 |----|
口④口口 |----|
②③口口 |①-②-|
①口口口 |③-④-|
32
口①口口 |①---|
口口口口 |----|
口口口口 |----|
口口口口 |----|
33
①⑤口② |--①-|
③口⑥④ |②-③-|
口⑦口口 |④-⑤-|
口口口口 |⑥-⑦-|
34
⑤⑤④④ |①---|
③⑥口口 |②-③-|
口口②② |④---|
①①口口 |⑤-⑥-|
35
⑥口口⑦ |①-②-|
口口⑤⑤ |③-④-|
②②④④ |⑤---|
①①③③ |⑥-⑦-|
36
口⑦⑧口 |①-②-|
口③④口 |③-④-|
口⑤⑥口 |⑤-⑥-|
①口口② |⑦-⑧-|
37
口口口口 |①-②-|
①口口② |③-④-|
③⑦⑧④ |⑤-⑥-|
口⑤⑥口 |⑦-⑧-|
38
口①①口 |①---|
④口口口 |②-③-|
③口口⑥ |④---|
②口口⑤ |⑤-⑥-|
39
⑤口口⑥ |①---|
口②②① |--②③|
口③③口 |④---|
口④④口 |⑤-⑥-|
40
口⑦⑧口 |①-②-|
口③④口 |③-④-|
口⑤⑥口 |⑤-⑥-|
①口口② |⑦-⑧-|
41
口口口口 |①-②-|
①口口② |③-④-|
③⑦⑧④ |⑤-⑥-|
口⑤⑥口 |⑦-⑧-|
42
口①①口 |①---|
④口口口 |②-③-|
③口口⑥ |④---|
②口口⑤ |⑤-⑥-|
43
⑤口口⑥ |①---|
口②②① |--②③|
口③③口 |④---|
口④④口 |⑤-⑥-|
44
口⑦⑧口 |①-②-|
口③④口 |③-④-|
口⑤⑥口 |⑤-⑥-|
①口口② |⑦-⑧-|
45
口口口口 |①-②-|
①口口② |③-④-|
③⑦⑧④ |⑤-⑥-|
口⑤⑥口 |⑦-⑧-|
46
口①①口 |①---|
④口口口 |②-③-|
③口口⑥ |④---|
②口口⑤ |⑤-⑥-|
47
⑤口口⑥ |①---|
口②②① |--②③|
口③③口 |④---|
口④④口 |⑤-⑥-|
48
口⑦⑧口 |①-②-|
口③④口 |③-④-|
口⑤⑥口 |⑤-⑥-|
①口口② |⑦-⑧-|
49
口口口口 |①-②-|
①口口② |③-④-|
③⑦⑧④ |⑤-⑥-|
口⑤⑥口 |⑦-⑧-|
50
口①①口 |①---|
④口口口 |②-③-|
③口口⑥ |④---|
②口口⑤ |⑤-⑥-|
51
⑤口口⑥ |①---|
口②②① |--②③|
口③③口 |④-⑤-|
⑦④④口 |⑥-⑦-|
52
口口口口 |①---|
口口口口 |----|
口口口口 |----|
口口口① |----|
53
口④口口 |①---|
口③口口 |②---|
口②口口 |③---|
口①口口 |④---|
54
口口口口 |----|
口口口口 |----|
口口口口 |----|
口口口口 |----|
55
⑥②⑦口 |①-②-|
③①④口 |③-④-|
⑧⑤口口 |⑤-⑥-|
口口口口 |⑦-⑧-|
56
口口口口 |①---|
口口口口 |----|
口口①口 |----|
口口口口 |----|
57
口口④口 |①---|
口口③口 |②---|
口口②口 |③---|
口口①口 |④---|
58
①口口② |①-②-|
口⑤⑥口 |③-④-|
口⑦⑧口 |⑤-⑥-|
③口口④ |⑦-⑧-|
59
⑥①②⑦ |①-②-|
⑤口口⑤ |③-④-|
⑤口口⑤ |⑤---|
口③④口 |⑥-⑦-|
60
口⑦⑧口 |①-②-|
口③④口 |③-④-|
口⑤⑥口 |⑤-⑥-|
①口口② |⑦-⑧-|
61
口口口口 |①-②-|
①口口② |③-④-|
③⑦⑧④ |⑤-⑥-|
口⑤⑥口 |⑦-⑧-|
62
口①①口 |①---|
④口口口 |②-③-|
③口口⑥ |④---|
②口口⑤ |⑤-⑥-|
63
⑤口口⑥ |①---|
口②②① |--②③|
口③③口 |④---|
口④④口 |⑤-⑥-|
64
口⑦⑧口 |①-②-|
口③④口 |③-④-|
口⑤⑥口 |⑤-⑥-|
①口口② |⑦-⑧-|
65
口口口口 |①-②-|
①口口② |③-④-|
③⑦⑧④ |⑤-⑥-|
口⑤⑥口 |⑦-⑧-|
66
口①①口 |①---|
④口口口 |②-③-|
③口口⑥ |④---|
②口口⑤ |⑤-⑥-|
67
⑤口口⑥ |①---|
口②②① |--②③|
口③③口 |④---|
口④④口 |⑤-⑥-|
68
口⑦⑧口 |①-②-|
口③④口 |③-④-|
口⑤⑥口 |⑤-⑥-|
①口口② |⑦-⑧-|
69
口口口口 |①-②-|
①口口② |③-④-|
③⑦⑧④ |⑤-⑥-|
口⑤⑥口 |⑦-⑧-|
70
口①①口 |①---|
④口口口 |②-③-|
③口口⑥ |④---|
②口口⑤ |⑤-⑥-|
71
⑤口口⑥ |①---|
口②②① |--②③|
口③③口 |④---|
口④④口 |⑤-⑥-|
72
口⑦⑧口 |①-②-|
口③④口 |③-④-|
口⑤⑥口 |⑤-⑥-|
①口口② |⑦-⑧-|
73
口口口口 |①-②-|
①口口② |③-④-|
③⑦⑧④ |⑤-⑥-|
口⑤⑥口 |⑦-⑧-|
74
口①①口 |①---|
④口口口 |②-③-|
③口口⑥ |④---|
②口口⑤ |⑤-⑥-|
75
⑤口口⑥ |①---|
口②②① |--②③|
口③③口 |④-⑤-|
⑦④④口 |⑥-⑦-|
76
口①①口 |①---|
⑤口口② |②-③-|
⑥口口③ |④---|
口口口④ |⑤-⑥-|
77
口口口口 |①---|
口②②口 |--②③|
口③③口
①口口口

⑤口口⑥
口口口口
口口口口 |④-⑤-|
⑦④④口 |⑥-⑦-|
78
口口口口 |①---|
口口口口 |----|
口口口口 |----|
口口口① |----|
79
口④④口 |①---|
口③③口 |②---|
口②②口 |③---|
口①①口 |④---|
80
口口口口 |----|
口口口口 |----|
口口口口 |----|
口口口口 |----|
81
⑤口口⑥ |①-②-|
口①②口 |③-④-|
口③④口 |⑤-⑥-|
⑦口口⑧ |⑦-⑧-|
82
口①口口 |----|
口口②口 |①---|
口口口③ |②---|
口口口口 |③---|
83
①口口口 |①---|
口②口口 |②---|
口口③口 |③---|
口口口④ |④---|


不确定度: 0

最終更新:2012年11月11日 16:49