STARLIT DUST/スティルに捧ぐ
Des-ROW+ANT

BASIC

Level: 4
BPM: 183
Notes: 292

1
口口口口 |----|
口口口口 |----|
口口口口 |----|
口口口口 |----|
2
口口①口 |①---|
口口口口 |--②-|
④口口口 |--③-|
②口口③ |--④-|
3
口④口口 |--①-|
②口口③ |--②-|
口口口① |--③-|
口口口口 |--④-|
4
口口①口 |①---|
口口口口 |--②-|
④口口口 |--③-|
②口口③ |--④-|
5
口④口口 |--①-|
②口口③ |--②-|
口口口① |--③-|
口口口口 |--④-|
6
口口①口 |①---|
口口口口 |--②-|
口④口口 |--③-|
②③口口 |--④-|
7
口口④口 |①---|
口口③② |--②-|
口口①口 |--③-|
口口口口 |--④-|
8
口①口口 |①---|
口口口口 |--②-|
口口④口 |--③-|
口口③② |--④-|
9
口④口口 |①---|
②③口口 |--②-|
口①口口 |--③-|
口口口口 |--④-|
10
口口①② |①---|
口口口③ |--②-|
口口口④ |--③-|
口口口口 |--④-|
11
口口②口 |--①-|
口口③口 |--②-|
口④口口 |--③-|
口口口① |--④-|
12
②口口口 |①---|
③口口口 |--②-|
④口①口 |--③-|
口口口口 |--④-|
13
口②口口 |--①-|
口③口口 |--②-|
口口④口 |--③-|
①口口口 |--④-|
14
②③口口 |①---|
口④口口 |--②-|
口①口口 |--③-|
口口口口 |--④-|
15
口口口口 |①---|
口口①口 |--②-|
口口③② |--③-|
口口④口 |--④-|
16
口口③② |①---|
口口④口 |--②-|
口口口口 |--③-|
口①口口 |--④-|
17
口口口口 |①---|
口①口口 |--②-|
②口口口 |--③-|
口③④口 |④---|
18
口口口口 |----|
口口口口 |----|
口口口口
口口口口
19
③口口④ |----|
口①②口 |①---|
口口口口 |②---|
口口口口 |③-④-|
20
口口口口 |----|
口口口口 |①---|
口①②口 |②---|
③口口④ |③-④-|
21
口口口口 |----|
口口口口 |①---|
③口口④ |②---|
口①②口 |③-④-|
22
③口口④ |----|
口①②口 |①---|
口口口口 |②---|
口口口口 |③-④-|
23
口口口口 |--①-|
口口口口 |②---|
口①②口 |----|
口口口口 |----|
24
口口口口 |----|
口口口口 |①---|
口③④口 |②---|
①②口口 |③-④-|
25
口④③口 |----|
口口②① |①---|
口口口口 |②---|
口口口口 |③-④-|
26
口口口口 |----|
口②②口 |--①-|
口①①口 |----|
口口口口 |--②-|
27
口口口口 |----|
口口口口 |①---|
①口口② |②---|
口③④口 |③-④-|
28
口口口口 |----|
③口口④ |①---|
口①②口 |②---|
口口口口 |③-④-|
29
③口口④ |----|
口①②口 |①---|
口口口口 |②---|
口口口口 |③-④-|
30
口①②口 |----|
③口口④ |①---|
口口口口 |②---|
口口口口 |③-④-|
31
口口口口 |--①-|
口口口口 |②---|
口①②口 |----|
口口口口 |----|
32
口口口口 |----|
口口口口 |----|
口口口口 |----|
①口口口 |--①-|
33
口口口口 |--①-|
口口口口 |②---|
口①②口 |----|
口口口口 |----|
34
口口口口 |----|
口口口口 |----|
口口口口 |----|
口口口口 |----|
35
口③④口 |----|
口口口口 |①---|
①口口② |②---|
口口口口 |③-④-|
36
口口口口 |----|
口①②口 |①-②-|
③口口口 |----|
口口口口 |③---|
37
口口口口 |①---|
口口口口 |②---|
口④⑤① |③---|
②口口③ |④-⑤-|
38
口口口口 |----|
口口口口 |----|
口口口口 |----|
口口口口 |----|
39
口口口口 |----|
口口口口 |----|
口口口口 |----|
口口口口 |----|
40
口③②① |①---|
口口口口 |②---|
口口口口 |③---|
口口口口 |----|
41
口④⑤口 |①---|
②口口③ |②---|
口口口口 |③---|
口①①口 |④-⑤-|
42
口口口口 |----|
口口口口 |①---|
口①②口 |②---|
③口口口 |③---|
43
口口口口 |①---|
口口口口 |----|
②口口② |②---|
口口口① |----|
44
口口口口 |①---|
口①①口 |----|
口口口口 |----|
口口口口 |----|
45
口口口口 |----|
③口口④ |①---|
口①②口 |②---|
口口口口 |③-④-|
46
①③口② |----|
口口口口 |①---|
口口口口 |②---|
口口口口 |③---|
47
口口①口 |①---|
口②②口 |----|
口口口口 |②---|
口口口口 |----|
48
口口口口 |①---|
口口口口 |----|
口①①口 |②---|
口②②口 |----|
49
口口口口 |----|
口③④口 |①---|
①口口② |②---|
口口口口 |③-④-|
50
口口口口 |----|
口口口口 |①---|
①口口口 |②---|
口②③口 |③---|
51
口口口口 |①---|
②口口② |----|
口口口① |②---|
口口口口 |----|
52
①口口① |①---|
口②②口 |----|
口口口口 |②---|
口口口口 |----|
53
口口口口 |----|
口②口口 |①---|
①口③④ |②---|
口口口口 |③-④-|
54
口口口口 |----|
口口口口 |①---|
口口口口 |②---|
①②③口 |③---|
55
口口口口 |①---|
④口口⑤ |②---|
口②③口 |③---|
口口口① |④-⑤-|
56
口口口口 |----|
口口口口 |----|
口①①口 |①---|
口口口口 |----|
57
口①①口 |①---|
口口口口 |----|
口口口口 |----|
口口口口 |----|
58
口口口口 |----|
口③口① |①---|
口口②口 |②---|
口口口口 |③---|
59
口口口口 |①---|
口口口口 |----|
①口口口 |----|
口口口口 |----|
60
口口口口 |----|
①口③口 |①---|
口②口口 |②---|
口口口口 |③---|
61
口口口口 |①---|
口口口口 |----|
口口口① |----|
口口口口 |----|
62
口口口口 |----|
口口口口 |①---|
口口口口 |②---|
①②③口 |③---|
63
口口口口 |①---|
口口口口 |--②-|
③②口口 |----|
口口口① |③---|
64
口②③口 |①---|
口①④口 |②---|
口口口口 |③---|
口口口口 |④---|
65
口口口口 |①---|
口口口口 |----|
口口口① |----|
口②②口 |②---|
66
口口口口 |①---|
②口口② |----|
口①①口 |----|
口口口口 |②---|
67
①口口① |①---|
口口口口 |----|
口口口口 |----|
口口口口 |----|
68
口口口口 |①---|
口口口口 |--②-|
口①②③ |----|
口口口口 |③---|
69
口口口口 |①---|
口①②③ |--②-|
口口口口 |----|
口口口口 |③---|
70
④③②① |①---|
口口口口 |②---|
口口口口 |③---|
口口口口 |④---|
71
口口口口 |①---|
①口口口 |----|
口口口口 |----|
口口口口 |----|
72
口口口口 |----|
口口口口 |----|
口口口口 |----|
口口口口 |----|
73
口口口口 |①---|
口口口口 |----|
口①①口
口口口口
74
③口口④ |----|
口①②口 |①---|
口口口口 |②---|
口口口口 |③-④-|
75
口口口口 |----|
口口口口 |①---|
口①②口 |②---|
③口口④ |③-④-|
76
口口口口 |----|
口口口口 |①---|
③口口④ |②---|
口①②口 |③-④-|
77
③口口④ |----|
口①②口 |①---|
口口口口 |②---|
口口口口 |③-④-|
78
口口口口 |--①-|
口口口口 |②---|
口①②口 |----|
口口口口 |----|
79
口口口口 |----|
口口口口 |①---|
口③④口 |②---|
①②口口 |③-④-|
80
口④③口 |----|
口口②① |①---|
口口口口 |②---|
口口口口 |③-④-|
81
口口口口 |----|
口②②口 |--①-|
口①①口 |----|
口口口口 |--②-|
82
口口口口 |----|
口口口口 |①---|
①口口② |②---|
口③④口 |③-④-|
83
口口口口 |----|
③口口④ |①---|
口①②口 |②---|
口口口口 |③-④-|
84
③口口④ |----|
口①②口 |①---|
口口口口 |②---|
口口口口 |③-④-|
85
口①②口 |----|
③口口④ |①---|
口口口口 |②---|
口口口口 |③-④-|
86
口口口口 |--①-|
口口口口 |②---|
口①②口 |----|
口口口口 |----|
87
口口口口 |----|
口口口口 |----|
口口口口 |----|
①口口口 |--①-|
88
口口口口 |--①-|
口口口口 |②---|
口①②口 |----|
口口口口 |----|
89
口口口口 |----|
口口口口 |----|
口口口口 |----|
口口口口 |----|
90
口③④口 |----|
口口口口 |①---|
①口口② |②---|
口口口口 |③-④-|
91
口口口口 |----|
口①②口 |①-②-|
③口口口 |----|
口口口口 |③---|
92
口口口口 |①---|
口⑤⑤口 |②---|
口④口① |③---|
②口口③ |④-⑤-|


不確定度: 0

最終更新:2013年03月29日 20:36