STARLIT DUST/スティルに捧ぐ
Des-ROW+ANT

ADVANCED

Level: 6
BPM: 183
Notes: 416

1
口口口口 |----|
口口口口 |----|
口口口口 |----|
口口口口 |----|
2
①口口口 |①---|
口⑥⑦口 |②-③-|
口④⑤口 |④-⑤-|
口②③口 |⑥-⑦-|
3
口①②口 |①-②-|
⑦口口⑧ |③-④-|
⑤口口⑥ |⑤-⑥-|
③口口④ |⑦-⑧-|
4
①口口口 |①---|
口⑥⑦口 |②-③-|
口④⑤口 |④-⑤-|
口②③口 |⑥-⑦-|
5
口①②口 |①-②-|
⑦口口⑧ |③-④-|
⑤口口⑥ |⑤-⑥-|
③口口④ |⑦-⑧-|
6
①口口口 |①---|
口⑥⑦口 |②-③-|
口④⑤口 |④-⑤-|
口②③口 |⑥-⑦-|
7
①口口口 |①---|
⑥口口⑦ |②-③-|
④口口⑤ |④-⑤-|
②口口③ |⑥-⑦-|
8
①口口口 |①---|
口⑥⑦口 |②-③-|
口④⑤口 |④-⑤-|
口②③口 |⑥-⑦-|
9
①口口口 |①---|
⑥口口⑦ |②-③-|
④口口⑤ |④-⑤-|
②口口③ |⑥-⑦-|
10
①口口口 |①---|
口⑥⑦口 |②-③-|
口④⑤口 |④-⑤-|
口②③口 |⑥-⑦-|
11
口①②口 |①-②-|
⑦口口⑧ |③-④-|
⑤口口⑥ |⑤-⑥-|
③口口④ |⑦-⑧-|
12
①口口口 |①---|
口⑥⑦口 |②-③-|
口④⑤口 |④-⑤-|
口②③口 |⑥-⑦-|
13
口①②口 |①-②-|
⑦口口⑧ |③-④-|
⑤口口⑥ |⑤-⑥-|
③口口④ |⑦-⑧-|
14
①口口口 |①---|
口⑥⑦口 |②-③-|
口④⑤口 |④-⑤-|
口②③口 |⑥-⑦-|
15
①口口口 |①---|
⑥口口⑦ |②-③-|
④口口⑤ |④-⑤-|
②口口③ |⑥-⑦-|
16
①口口口 |①---|
口⑥⑦口 |②-③-|
口④⑤口 |④-⑤-|
口②③口 |⑥-⑦-|
17
⑥①②⑥ |①-②-|
口⑦⑦口 |③-④-|
⑤口口口 |⑤-⑥-|
③口口④ |⑦---|
18
口口口口 |--①-|
口口口口 |②-③-|
口口口口
①②③口
19
口口口口 |①---|
②口⑥⑤ |②-③-|
口③④口 |④---|
口口口① |⑤-⑥-|
20
①口③④ |----|
②口口口 |①---|
口口口口 |②---|
口口口口 |③-④-|
21
口口口口 |----|
口口口① |①---|
④③口② |②---|
口口口口 |③-④-|
22
口口口口 |----|
口口①口 |①---|
口口②口 |②---|
③④口口 |③-④-|
23
⑥口口口 |--①-|
④口口⑤ |②---|
口口口③ |③-④-|
口口②① |⑤-⑥-|
24
⑤口口① |----|
③口口④ |①---|
口口口② |②-③-|
口口口口 |④-⑤-|
25
⑤口口① |----|
③口口④ |①---|
口口口② |②-③-|
口口口口 |④-⑤-|
26
口②②口 |----|
口①①口 |--①-|
口口口口 |----|
口口口口 |--②-|
27
口口口口 |----|
①口口口 |①-②-|
口②③口 |③---|
口口⑤④ |④-⑤-|
28
口口口口 |--①-|
④⑤口口 |②---|
口口口③ |③---|
①②口口 |④-⑤-|
29
口③②① |----|
口口⑤④ |①-②-|
口口口口 |③---|
口口口口 |④-⑤-|
30
口口口口 |----|
口口口口 |①---|
①口口② |②---|
口③④口 |③-④-|
31
口口口口 |--①-|
口口口口 |②---|
口②①口 |----|
口口口口 |----|
32
口口口口 |----|
①①口口 |----|
口口口口 |----|
口口口口 |--①-|
33
口②②口 |--①-|
口口①① |②---|
口口口口 |----|
口口口口 |----|
34
口口口口 |----|
口口口口 |----|
口口口口 |----|
口口口口 |----|
35
口②③口 |----|
①口⑤④ |①-②-|
口口口口 |③---|
口口口口 |④-⑤-|
36
口口口口 |----|
口口口口 |①-②-|
①②口③ |----|
口口④口 |③-④-|
37
⑤③③⑤ |①---|
④②②④ |②---|
口口口口 |③---|
口①口口 |④-⑤-|
38
口口口口 |----|
口口口口 |----|
口口口口 |----|
口口口口 |----|
39
口口口口 |----|
口口口口 |----|
口口口口 |----|
口口口口 |----|
40
①②③口 |①---|
④口口口 |②---|
口⑤口口 |③---|
口口口口 |④-⑤-|
41
口口口口 |①---|
口③口② |②---|
口口⑤④ |③---|
口口①口 |④-⑤-|
42
口口口口 |----|
口口口口 |①---|
①口口口 |②---|
口②③口 |③---|
43
口口口口 |①---|
口②②口 |----|
口口口① |②---|
口口口口 |----|
44
①口口① |①---|
口口口口 |----|
口口口口 |----|
口口口口 |----|
45
口口口口 |----|
②口③④ |①---|
口口①口 |②---|
口口口口 |③-④-|
46
口③①口 |----|
口口口口 |①---|
口口②口 |②---|
口口口口 |③---|
47
口口口口 |①---|
口口口口 |----|
口①口口 |②---|
口②②口 |----|
48
口口口口 |①---|
②口口② |----|
①口口① |②---|
口口口口 |----|
49
①②口口 |----|
口口③④ |①---|
口口口口 |②---|
口口口口 |③-④-|
50
口口口口 |----|
口口口口 |①---|
①口③口 |②---|
口②口口 |③---|
51
口②②口 |①---|
口口口口 |----|
口口口口 |②---|
口口口① |----|
52
口口口口 |①---|
①口口① |----|
口口口口 |②---|
②口口② |----|
53
口口口口 |----|
③口口④ |①---|
口①②口 |②---|
口口口口 |③-④-|
54
口口口口 |----|
口口口口 |①---|
口口口口 |②---|
③①②口 |③---|
55
④口口⑤ |①---|
口口口口 |②---|
口②③口 |③---|
口口口① |④-⑤-|
56
口口口口 |----|
口①①口 |----|
口口口口 |①---|
口口口口 |----|
57
口口口口 |①---|
口口口口 |----|
①口口① |----|
口口口口 |----|
58
口口口口 |----|
口口口口 |①---|
③③②② |②---|
①①口口 |③---|
59
口口口口 |①---|
口口口口 |----|
口口口口 |----|
口口①① |----|
60
③③②② |----|
①①口口 |①---|
口口口口 |②---|
口口口口 |③---|
61
口口口口 |①---|
口口①① |----|
口口口口 |----|
口口口口 |----|
62
口口口口 |----|
口②②口 |①---|
口①①口 |②---|
口③③口 |③---|
63
口①①口 |①---|
③口口口 |--②-|
②口口② |----|
口口口口 |③---|
64
②口口③ |①---|
口④④① |②---|
口口口口 |③---|
口口口口 |④---|
65
口①①口 |①---|
口口口口 |----|
②③口口 |----|
口口口口 |②-③-|
66
口口口口 |①---|
口口口口 |----|
口口①口 |----|
口②②口 |②---|
67
口口口口 |①---|
①口口① |----|
口口口口 |----|
口口口口 |----|
68
口①①口 |①---|
口口口口 |②-③-|
③口口② |----|
口④④口 |④---|
69
口口口口 |①---|
③口口③ |--②-|
②口口② |----|
①口口① |③---|
70
④③③④ |①---|
口②②口 |②---|
口①①口 |③---|
口口口口 |④---|
71
口口口口 |①---|
①口口① |----|
口口口口 |----|
口口口口 |----|
72
口口口口 |----|
口口口口 |----|
①②③口 |--①-|
口口口口 |②-③-|
73
口口口口 |----|
口口口口 |----|
口口口口
口口口口
74
口口口口 |----|
①口⑤④ |①-②-|
口②③口 |③---|
口口口口 |④-⑤-|
75
①口③④ |----|
②口口口 |①---|
口口口口 |②---|
口口口口 |③-④-|
76
口口口口 |----|
口口口① |①---|
④③口② |②---|
口口口口 |③-④-|
77
口口口口 |----|
①②口口 |①-②-|
口口③口 |③---|
④⑤口口 |④-⑤-|
78
⑥口口口 |--①-|
④口口⑤ |②---|
口口口③ |③-④-|
口口②① |⑤-⑥-|
79
⑤口口① |----|
③口口④ |①---|
口口口② |②-③-|
口口口口 |④-⑤-|
80
⑤口口① |----|
③口口④ |①---|
口口口② |②-③-|
口口口口 |④-⑤-|
81
口②②口 |----|
口①①口 |--①-|
口口口口 |----|
口口口口 |--②-|
82
口口口口 |----|
①口口口 |①-②-|
口②③口 |③---|
口口⑤④ |④-⑤-|
83
口口口口 |----|
③④口口 |①---|
口口口② |②---|
口①口口 |③-④-|
84
口②口① |----|
口口④③ |①---|
口口口口 |②---|
口口口口 |③-④-|
85
口口口口 |----|
口口口口 |①---|
①口口② |②-③-|
③④⑤口 |④-⑤-|
86
口口口口 |--①-|
口口口口 |②---|
口②①口 |----|
口口口口 |----|
87
口口口口 |----|
①①口口 |----|
口口口口 |----|
口口口口 |--①-|
88
口②②口 |--①-|
口口①① |②---|
口口口口 |----|
口口口口 |----|
89
口口口口 |----|
口口口口 |----|
口口口口 |----|
口口口口 |----|
90
口②③口 |----|
①口⑤④ |①-②-|
口口口口 |③---|
口口口口 |④-⑤-|
91
口口口口 |----|
口口口口 |①-②-|
①②口③ |----|
口口④口 |③-④-|
92
口③③口 |①---|
口②②口 |②---|
⑤⑤⑤⑤ |③---|
④①口④ |④-⑤-|


不確定度: 0

最終更新:2013年03月29日 20:36