Shining Star
Sota Fujimori feat.Nagisa

BASIC

Level: 4
BPM: 140
Notes: 279

1
口口口口 |----|
口口口口 |----|
口口口口 |----|
口口口口 |----|
2
口④⑤口 |①-②-|
口③⑥口 |③-④-|
口②⑦口 |--⑤-|
口①口口 |⑥-⑦-|
3
口口口① |①-②-|
⑦口口② |③-④-|
⑥口口③ |--⑤-|
⑤口口④ |⑥-⑦-|
4
口④⑤口 |①-②-|
口③⑥口 |③-④-|
口②⑦口 |--⑤-|
口①口口 |⑥-⑦-|
5
口口口① |①-②-|
口口口② |③-④-|
口口口③ |----|
口口口④ |----|
6
口④⑤口 |①-②-|
口③⑥口 |③-④-|
口②⑦口 |--⑤-|
口①口口 |⑥-⑦-|
7
口口口① |①-②-|
⑦口口② |③-④-|
⑥口口③ |--⑤-|
⑤口口④ |⑥-⑦-|
8
口④⑤口 |①-②-|
口③⑥口 |③-④-|
口②⑦口 |--⑤-|
口①口口 |⑥-⑦-|
9
口口口① |①-②-|
口口口② |③-④-|
口口口③ |----|
口口口④ |----|
10
口口口口 |①---|
②口口口 |----|
口①①口 |----|
口口口口 |--②-|
11
口口口口 |①---|
口口口① |--②-|
口③口口 |----|
口②口口 |③---|
12
口③口口 |①---|
②口口口 |--②-|
口口①口 |----|
口口口口 |--③-|
13
口口①口 |①---|
口②③④ |--②-|
口口口口 |--③-|
口口口口 |--④-|
14
口口口口 |①---|
②口口口 |----|
口①①口 |----|
口口口口 |--②-|
15
口口口口 |①---|
口口口① |--②-|
口③口口 |----|
口②口口 |③---|
16
③口口口 |①---|
②口口口 |--②-|
口口①口 |----|
口口口口 |--③-|
17
口口口口 |①②-③|
口①②口 |--④-|
③口口④ |--⑤-|
口⑤⑤口 |----|
18
口②③口 |①---|
①口口④ |②---|
口口口口 |③---|
口口口口 |④---|
19
口口口口 |①---|
口④⑤⑥ |②---|
口口口口 |③-④-|
①②③口 |⑤-⑥-|
20
口口口口 |----|
④口口口 |--①-|
③口①口 |--②-|
②口口口 |③-④-|
21
口口口口 |--①-|
口①②③ |--②-|
口口口④ |--③-|
口口口口 |--④-|
22
口口口口 |①---|
口口口口 |②---|
①②③④ |③---|
口口口口 |④---|
23
④⑤⑥口 |①---|
①②③口 |②---|
口口口口 |③-④-|
口口口口 |⑤-⑥-|
24
口口口口 |----|
⑤口口口 |①-②-|
④口口口 |--③-|
③①②口 |④-⑤-|
25
口①②口 |----|
口口口口 |①---|
口口口口 |②---|
口口口口 |----|
26
口②③口 |①---|
①口口④ |②---|
口口口口 |③---|
口口口口 |④---|
27
口口口口 |①---|
口④⑤⑥ |②---|
口口口口 |③-④-|
①②③口 |⑤-⑥-|
28
口口口口 |----|
④口口口 |--①-|
③口①口 |--②-|
②口口口 |③-④-|
29
口口口口 |--①-|
口①②③ |--②-|
口口口④ |--③-|
口口口口 |--④-|
30
口口口口 |①---|
⑤口口口 |②---|
①②③④ |③---|
口口口口 |④-⑤-|
31
口④⑤口 |--①-|
口①②③ |--②-|
口口口口 |--③-|
口口口口 |④-⑤-|
32
口口口口 |----|
④口口口 |--①-|
③口①口 |--②-|
②口口口 |③-④-|
33
口口口口 |----|
口①②口 |①---|
口口口口 |②---|
口口口口 |----|
34
口口口口 |①---|
口口口口 |②---|
口口口口 |③---|
①②③④ |④---|
35
口口口口 |①---|
②口口② |----|
①口口① |②---|
口口口口 |----|
36
①②③④ |①---|
口口口口 |②---|
口口口口 |③---|
口口口口 |④---|
37
口口口口 |①---|
口①①口 |----|
口②②口 |②---|
口口口口 |----|
38
口口口口 |①---|
口口口口 |②---|
口口口口 |③---|
①②③④ |④---|
39
口口口口 |①---|
②口口② |----|
①口口① |②---|
口口口口 |----|
40
①②③④ |①---|
口口口口 |②---|
口⑤⑤口 |③---|
口口口口 |④-⑤-|
41
口口口口 |----|
口口口口 |----|
口口口口 |----|
口口口口 |----|
42
口口口口 |①---|
口口口口 |②---|
①③④② |③---|
口口口口 |④---|
43
口②②口 |①--②|
③①①③ |--③-|
口口口口 |----|
口口口口 |----|
44
④③②① |①---|
口口口口 |②---|
口口口口 |③---|
口口口口 |④---|
45
口口口口 |①---|
①口口② |②---|
口③④口 |③---|
口口口口 |④---|
46
口口口口 |①---|
①口口② |②---|
口③④口 |③---|
口口口口 |④---|
47
②①①② |①---|
口口口口 |----|
口口口口 |②---|
口口口口 |----|
48
口口口口 |①---|
口口口口 |----|
口口口口 |②---|
①②②① |----|
49
口口口口 |①---|
口②②口 |----|
口①①口 |②---|
口口口口 |----|
50
口口口口 |①---|
口口口口 |②---|
①③④② |③---|
口口口口 |④---|
51
口②②口 |①--②|
③①①③ |--③-|
口口口口 |----|
口口口口 |----|
52
④③②① |①---|
口口口口 |②---|
口口口口 |③---|
口口口口 |④---|
53
口口口口 |①---|
①口口② |②---|
口③④口 |③---|
口口口口 |④---|
54
口口口口 |①---|
①③④② |②---|
口口口口 |③---|
口口口口 |④---|
55
②①①② |①---|
口口口口 |----|
口口口口 |②---|
口口口口 |----|
56
口口口口 |①---|
口口口口 |----|
口口口口 |②---|
①②②① |----|
57
口口口口 |①---|
口②②口 |----|
口①①口 |②---|
口口口口 |----|
58
①③④② |①---|
口口口口 |②---|
口口口口 |③---|
口口口口 |④---|
59
口口口口 |①---|
①③④② |②---|
口口口口 |③---|
口口口口 |④---|
60
口口口口 |①---|
口口口口 |②---|
①③④② |③---|
口口口口 |④---|
61
口口口口 |①---|
口口口口 |②---|
口口口口 |③---|
①③④② |④---|
62
口④③口 |①---|
口口口② |②---|
口口口① |③---|
口口口口 |④---|
63
口口口口 |①---|
①口口口 |②---|
②口口口 |③---|
口③④口 |④---|
64
口口口口 |①---|
口④③口 |②---|
口①②口 |③---|
口口口口 |④---|
65
口口口口 |①---|
口③③口 |--②-|
口②②口 |--③-|
①口口① |----|


不确定度: 0

最終更新:2012年11月11日 16:46