Shining Star
Sota Fujimori feat.Nagisa

ADVANCED

Level: 6
BPM: 140
Notes: 406

1
口口口口 |----|
口口口口 |----|
口口口口 |----|
口口口口 |----|
2
⑦⑨⑩⑧ |①②③④|
⑤⑪⑫⑥ |⑤⑥⑦⑧|
③⑬⑭④ |--⑨⑩|
①口口② |⑪⑫⑬⑭|
3
①口口② |①②③④|
③⑬⑭④ |⑤⑥⑦⑧|
⑤⑪⑫⑥ |--⑨⑩|
⑦⑨⑩⑧ |⑪⑫⑬⑭|
4
⑦⑨⑩⑧ |①②③④|
⑤⑪⑫⑥ |⑤⑥⑦⑧|
③⑬⑭④ |--⑨⑩|
①口口② |⑪⑫⑬⑭|
5
①口口② |①②③④|
③口口④ |⑤⑥⑦⑧|
⑤口口⑥ |----|
⑦口口⑧ |----|
6
⑦⑨⑩⑧ |①②③④|
⑤⑪⑫⑥ |⑤⑥⑦⑧|
③⑬⑭④ |--⑨⑩|
①口口② |⑪⑫⑬⑭|
7
①口口② |①②③④|
③⑬⑭④ |⑤⑥⑦⑧|
⑤⑪⑫⑥ |--⑨⑩|
⑦⑨⑩⑧ |⑪⑫⑬⑭|
8
⑦⑨⑩⑧ |①②③④|
⑤⑪⑫⑥ |⑤⑥⑦⑧|
③⑬⑭④ |--⑨⑩|
①口口② |⑪⑫⑬⑭|
9
①口口② |①②③④|
③口口④ |⑤⑥⑦⑧|
⑤口口⑥ |----|
⑦口口⑧ |----|
10
口口口口 |①---|
①①①① |----|
口口口口 |----|
②口口② |--②-|
11
口口口口 |①---|
口③③口 |--②-|
②①①② |----|
口口口口 |③---|
12
口①①口 |①---|
口口口口 |--②-|
③口口③ |----|
口②②口 |--③-|
13
③④④③ |①---|
②①①② |--②-|
口口口口 |--③-|
口口口口 |--④-|
14
口口口口 |①---|
①①①① |----|
口口口口 |----|
②口口② |--②-|
15
口口口口 |①---|
口③③口 |--②-|
②①①② |----|
口口口口 |③---|
16
口①①口 |①---|
口口口口 |--②-|
口口口口 |----|
③②②③ |--③-|
17
③口口③ |①②-③|
④①②④ |--④-|
⑤口口⑤ |--⑤-|
口口口口 |----|
18
口口⑥口 |①---|
口口口⑤ |②---|
口③④口 |③-④⑤|
口①②口 |--⑥-|
19
口口口口 |--①-|
口①②口 |②-③-|
口③④口 |④-⑤-|
口⑤⑥⑦ |⑥-⑦-|
20
口口口口 |----|
口②③④ |--①-|
①口口口 |--②-|
口口口口 |③-④-|
21
口口口口 |--①-|
口口口口 |--②-|
④口②口 |--③-|
口③口① |--④-|
22
口口口口 |①---|
口②③口 |②---|
口①④口 |③--④|
口口口⑤ |--⑤-|
23
④⑤口③ |--①-|
口口口② |--②-|
口口口① |--③-|
口口口口 |④-⑤-|
24
口口口口 |----|
③④⑤口 |①-②-|
口口②① |--③-|
口口口口 |④-⑤-|
25
口口口口 |--①-|
口口口口 |②-③-|
口口口口 |④---|
①②③④ |----|
26
口口⑥口 |①---|
口口口⑤ |②---|
口③④口 |③-④⑤|
口①②口 |--⑥-|
27
口口口口 |--①-|
口①口口 |--②-|
口②口口 |--③-|
口③④⑤ |④-⑤-|
28
口口口口 |----|
口②③④ |--①-|
①口口口 |--②-|
口口口口 |③-④-|
29
口口口口 |--①-|
口口口口 |--②-|
④口②口 |--③-|
口③口① |--④-|
30
口口口口 |①---|
口②口③ |②-③-|
口①口口
口口口口

口口口口
口口④口
口⑤⑥口 |④-⑤⑥|
口口口⑦ |--⑦-|
31
④⑤口③ |--①-|
口口口② |--②-|
口口口① |--③-|
口口口口 |④-⑤-|
32
口口口口 |----|
②③④口 |--①-|
口口①口 |--②-|
口口口口 |③-④-|
33
口口口口 |--①-|
口口口口 |②-③-|
口口口口 |④---|
①②③④ |----|
34
①②③④ |①---|
口口口口 |②---|
口口口口 |③---|
口口口口 |④---|
35
口口口口 |①---|
口口口口 |②-③-|
②①口口 |--④-|
⑤④口③ |⑤---|
36
口②③口 |①-②-|
①口⑤④ |③-④-|
口⑥⑦口 |⑤--⑥|
口口口口 |--⑦-|
37
口口口口 |----|
口口口口 |----|
口口口口 |--①-|
口①②口 |②---|
38
①②③④ |①---|
口口口口 |②---|
口口口口 |③---|
口口口口 |④---|
39
口口口口 |①---|
口口口口 |②-③-|
②①口口 |--④-|
⑤④口③ |⑤---|
40
口②③口 |①-②-|
①⑤⑥④ |③-④-|
口⑦⑦口 |⑤--⑥|
口口口口 |--⑦-|
41
口口口口 |----|
口口口口 |----|
口口口口 |----|
口口口口 |----|
42
④⑤⑥口 |①--②|
③口口口 |--③-|
口口口② |--④-|
①口口口 |⑤-⑥-|
43
口口口口 |①--②|
口口①① |--③-|
②②口口
口口③③

口口口口
口口口口
④口口口 |----|
口口口口 |--④-|
44
口口口口 |①--②|
口③口口 |--③-|
口口②口
口①口口

口口口口
口口口口
④⑤⑥口 |--④-|
口口口口 |⑤-⑥-|
45
③口④⑤ |①--②|
口②口口 |--③-|
口口口① |--④-|
口口口口 |⑤---|
46
④⑤⑥口 |①--②|
③口口口 |--③-|
口口口② |--④-|
①口口口 |⑤-⑥-|
47
口口口口 |①--②|
口口①① |--③-|
②②口口
口口③③

口口口口
口口口口
④口口口 |----|
口口口口 |--④-|
48
口口口口 |①--②|
口④③口 |-③-④|
口口②口
口①口口

口口口口
口口口口
⑤⑥⑦口 |--⑤-|
口口口口 |⑥-⑦-|
49
③口④⑤ |①--②|
口②口口 |--③-|
口口口① |--④-|
口口口口 |⑤---|
50
④⑤⑥口 |①--②|
③口口口 |--③-|
口口口② |--④-|
①口口口 |⑤-⑥-|
51
口口口口 |①--②|
口口①① |--③-|
②②口口
口口③③

口口口口
口口口口
④口口口 |----|
口口口口 |--④-|
52
口口口口 |①--②|
口④③口 |-③-④|
口口②口
口①口口

口口口口
口口口口
⑤⑥⑦口 |--⑤-|
口口口口 |⑥-⑦-|
53
③口④⑤ |①--②|
口②口口 |--③-|
口口口① |--④-|
⑥口口⑥ |⑤--⑥|
54
③④⑤口 |--①-|
②口口② |--②-|
①口口① |--③-|
口口口口 |④-⑤-|
55
口口口口 |①--②|
口口①① |--③-|
②②口口
口口③③

口口口口
口口口口
④口口口 |----|
口口口口 |--④-|
56
口口④口 |①--②|
口③口口 |-③-④|
口口②口
口①口口

口口口口
口口口口
⑤⑥⑦口 |--⑤-|
口口口口 |⑥-⑦-|
57
③口④⑤ |①--②|
口②口口 |--③-|
口口口① |--④-|
口口口口 |⑤---|
58
①口口口 |①---|
③口口口 |②---|
口口口④ |③---|
口口口② |④---|
59
口口口④ |①---|
口口口② |②---|
①口口口 |③---|
③口口口 |④---|
60
口口②口 |①---|
口口④口 |②---|
口③口口 |③---|
口①口口 |④---|
61
口③口口 |①---|
口①口口 |②---|
口口②口 |③---|
口口④口 |④---|
62
①口口口 |①---|
③口口口 |②---|
口口口④ |③---|
口口口② |④---|
63
口口口口 |①---|
口①④口 |②---|
口③②口 |③---|
口口口口 |④---|
64
口口口④ |①---|
口口口② |②---|
①口口口 |③---|
③口口口 |④---|
65
⑤⑤⑤⑤ |①②-③|
④口口④ |--④-|
①③③② |--⑤-|
口口口口 |----|


不确定度: 0

最終更新:2012年11月11日 16:46