Shining Star
Sota Fujimori feat.Nagisa

EXTREME

Level: 8
BPM: 140
Notes: 602

1
口口口口 |----|
口口口口 |----|
口口口口 |----|
口口口口 |----|
2
⑦⑨⑧⑩ |①②③④|
⑪⑤⑫⑥ |⑤⑥⑦⑧|
③⑬④⑭ |--⑨⑩|
口①口② |⑪⑫⑬⑭|
3
①口②口 |①②③④|
⑬③⑭④ |⑤⑥⑦⑧|
⑤⑪⑥⑫ |--⑨⑩|
⑨⑦⑩⑧ |⑪⑫⑬⑭|
4
⑦⑨⑧⑩ |①②③④|
⑪⑤⑫⑥ |⑤⑥⑦⑧|
③⑬④⑭ |--⑨⑩|
口①口② |⑪⑫⑬⑭|
5
①口②口 |①②③④|
口③口④ |⑤⑥⑦⑧|
⑤口⑥口 |----|
口⑦口⑧ |----|
6
⑦⑨⑧⑩ |①②③④|
⑪⑤⑫⑥ |⑤⑥⑦⑧|
③⑬④⑭ |--⑨⑩|
口①口② |⑪⑫⑬⑭|
7
①口②口 |①②③④|
⑬③⑭④ |⑤⑥⑦⑧|
⑤⑪⑥⑫ |--⑨⑩|
⑨⑦⑩⑧ |⑪⑫⑬⑭|
8
⑦⑨⑧⑩ |①②③④|
⑪⑤⑫⑥ |⑤⑥⑦⑧|
③⑬④⑭ |--⑨⑩|
口①口② |⑪⑫⑬⑭|
9
①口②口 |①②③④|
口③口④ |⑤⑥⑦⑧|
⑤口⑥口
口⑦口⑧

口⑨⑨口
口口口口
口口口口 |----|
口口口口 |⑨---|
10
②口口② |①---|
口②②口 |----|
①①①① |----|
口口口口 |--②-|
11
口①①口 |①---|
①口口① |--②-|
②口④④ |----|
③③②口 |③-④-|
12
口口口② |①---|
①①口口 |--②-|
口②口口
口口口口

口口口口
③口口口
口口③口 |----|
口口口口 |--③-|
13
③⑥⑤口 |①---|
⑤②③① |--②-|
⑥①口④ |③-④-|
口④②口 |⑤-⑥-|
14
②口口② |①---|
口②②口 |----|
口①①口 |----|
口口口口 |--②-|
15
口①①口 |①---|
①口口① |--②-|
②口④④ |----|
③③②口 |③-④-|
16
口口口② |①---|
①①口口 |--②-|
口②口口
口口口口

口口口口
③口口口
口口③口 |----|
口口口口 |--③-|
17
口口口口 |①②-③|
口②②① |--④-|
④①口③
③口口④

口口口口
⑤口口⑤
口⑤⑤口 |--⑤-|
口口口口 |----|
18
口口口口 |①---|
口④②口 |②---|
⑥口⑤口 |③-④⑤|
①口口③ |--⑥-|
19
⑦口④口 |--①-|
③⑦口① |②-③-|
口⑥口⑤ |④-⑤-|
口②⑥口 |⑥-⑦-|
20
④①口口 |----|
口④口③ |--①-|
口②③口 |--②-|
②口①口 |③-④-|
21
口口口口 |--①-|
④口口③ |--②-|
②口口口 |--③-|
口口口① |--④-|
22
①口口口 |①---|
口①口② |②---|
口口②口
口口口口

口口口口
口⑤口口
③口口④ |③--④|
口③④口 |--⑤-|
23
口④口口 |--①-|
③口④口 |--②-|
口⑤①口 |--③-|
口②⑤口 |④-⑤-|
24
口口①口 |----|
⑤①口口 |①-②-|
④口②③ |--③-|
口②口口 |④-⑤-|
25
口口①口 |--①-|
口口口② |②-③-|
口③口口 |④---|
口口口④ |----|
26
口口口口 |①---|
⑥④②口 |②---|
口⑥⑤口 |③-④⑤|
①口口③ |--⑥-|
27
⑤口口口 |--①-|
口⑤①③ |--②-|
②④口① |--③-|
口口④口 |④-⑤-|
28
④①口口 |----|
口口口口 |--①-|
口口③口 |--②-|
②口①口 |③-④-|
29
④口口③ |--①-|
②口③口 |--②-|
口②口① |--③-|
口口①口 |--④-|
30
口③口口 |①---|
口口口① |②-③-|
口②口口
口口口口

口口⑦口
⑤⑥口⑦
口口口口 |④-⑤⑥|
口口口④ |--⑦-|
31
口口口口 |--①-|
口口口口 |--②-|
②口口①
口②①口

口④口口
③口④口
口⑤口口 |--③-|
口口⑤口 |④-⑤-|
32
口口口口 |----|
④口①口 |--①-|
口口口② |--②-|
口③口口 |③-④-|
33
口口①口 |--①-|
口口口② |②-③-|
口③口口 |④---|
口口口④ |----|
34
口①②口 |①---|
①①②② |②---|
④④③③ |③---|
口④③口 |④---|
35
④⑤⑤④ |①---|
口②②口 |②-③-|
口口口口 |--④-|
①③③① |⑤---|
36
口口口口 |①-②-|
④口口口 |③-④-|
①口口③
口口②口

口口⑤口
口⑥口口
口口口口 |⑤--⑥|
口口⑦口 |--⑦-|
37
口口口口 |--①-|
①口口② |--②-|
③③④④ |--③-|
口口口口 |④---|
38
口①②口 |①---|
①①②② |②---|
④④③③ |③---|
口④③口 |④---|
39
④⑤⑤④ |①---|
口②②口 |②-③-|
口口口口 |--④-|
①③③① |⑤---|
40
口口口口 |①-②-|
④口口口 |③-④-|
①口口③
口口②口

口口⑤口
口⑥⑥口
⑦⑦⑦⑦ |⑤--⑥|
口⑦⑦口 |--⑦-|
41
③④⑤⑥ |----|
口②①口 |----|
口口口口 |①-②-|
⑩⑨⑧⑦ |③④⑤⑥⑦⑧⑨⑩|
42
口口口口 |①-②③|
⑤口②③ |-④⑤-|
口①④口
口口口口

口口口口
口⑧⑦口
⑥口口口 |--⑥-|
口口口口 |⑦-⑧-|
43
③口口③ |①--②|
②④⑤① |--③-|
口③③口 |----|
口②①口 |--④⑤|
44
口④口口 |①-②③|
①口口① |--④-|
①口④①
②③口口

⑤口口⑤
口⑥⑥口
口口口口 |--⑤-|
⑦⑧口口 |⑥-⑦⑧|
45
口口⑤⑤ |①--②|
④④口口 |--③-|
口②③③ |--④-|
口口①口 |⑤---|
46
口②口口 |①-②③|
⑤⑧⑦③ |-④⑤-|
⑥口④口 |--⑥-|
口①口口 |⑦-⑧-|
47
③口口③ |①--②|
②④⑤① |--③-|
口③③口 |----|
口②①口 |--④⑤|
48
口⑤口口 |①-②③|
口口口① |-④-⑤|
口⑤口口
②③口④

⑥口口⑥
口⑦⑦口
口口口口 |--⑥-|
⑧口口口 |⑦-⑧-|
49
口口⑤⑤ |①--②|
④④口口 |--③-|
口②③③ |--④-|
口口①口 |⑤---|
50
口②口口 |①-②③|
④⑦⑥③ |--④-|
⑤口口口 |--⑤-|
口①口口 |⑥-⑦-|
51
③口口③ |①--②|
②④⑤① |--③-|
口③③口 |----|
口②①口 |--④⑤|
52
口⑤口口 |①-②③|
口口口① |-④-⑤|
口⑤口口
②③口④

⑥口口⑥
口⑦⑦口
口口口口 |--⑥-|
⑧口口口 |⑦-⑧-|
53
口口口口 |①--②|
口口口口 |--③-|
口②③③
口口①口

口口⑤⑤
④④口口
口口口口 |--④-|
口⑥⑥口 |⑤--⑥|
54
口②②口 |--①-|
口⑤④口 |--②-|
口①①口 |-③--|
③口口口 |④-⑤-|
55
③口口③ |①--②|
②④⑤① |--③-|
口③③口 |----|
口②①口 |--④⑤|
56
口⑤④口 |①-②③|
口口口① |-④-⑤|
口⑤口口
②③口口

⑥口口⑥
口⑦⑦口
口口口口 |--⑥-|
⑧口口口 |⑦-⑧-|
57
口口⑤⑤ |①--②|
④④口口 |--③-|
口②③③ |--④-|
口口①口 |⑤---|
58
口①口口 |①-②③|
口口口口 |④---|
④口②口
口③口口

口口⑤口
口口口口
口⑧⑨⑥ |--⑤-|
口口⑦口 |⑥⑦⑧⑨|
59
①②③口 |--①②|
④⑤口口 |③-④⑤|
⑨⑧⑦⑥ |⑥⑦⑧⑨|
⑩⑪⑫口 |⑩⑪⑫-|
60
口②口口 |--①-|
③⑤口① |②③④⑤|
⑥④口⑪ |--⑥-|
⑦⑧⑨⑩ |⑦⑧⑨⑩⑪---|
61
口③④口 |--①②|
①⑤⑥② |-③④⑤|
⑦口口⑧ |⑥---|
⑨口口⑩ |⑦⑧⑨⑩|
62
⑧①①口 |--①-|
②口口③ |--②-|
口④⑤口 |③-④⑤|
口⑥⑦口 |⑥⑦-⑧|
63
口①②③ |①②③-|
口口口④ |④⑤⑥-|
口口口⑤
口口口⑥

⑫⑬⑭⑮
⑦口口口
口⑧⑨口 |⑦-⑧⑨|
口⑩⑪口 |⑩-⑪-⑫⑬⑭⑮|
64
口口口口 |①-②③|
口②③口 |④⑤--|
①④⑤口
口口口口

⑥⑦⑧⑨
口⑩⑪口
口⑫⑬口 |----⑥⑦⑧⑨|
口口口口 |⑩⑪⑫⑬|
65
④⑤口④ |①②-③|
②⑤⑤② |--④-|
①⑤⑤① |--⑤-|
③口⑤③ |----|


不确定度: 0

最終更新:2012年11月11日 16:45