Dragontail Butterfly
Tom-H@ck feat.Nadia

EXTREME

Level: 9
BPM: 170
Notes: 711

1
口口口口 |----|
口口口口 |----|
口口口口 |----|
口口口口 |----|
2
①①④口 |①-②-|
⑤⑦⑦口 |③-④-|
口③口口 |⑤-⑥-|
⑥口②⑥ |--⑦-|
3
口②②口 |--①-|
③口口口 |--②-|
①⑤口① |③-④-|
口口④口 |⑤---|
4
⑤口口① |①②③④|
口②⑥口 |-⑤⑥⑦|
⑦口③口
④口口口

口⑧⑪口
口⑫口⑨
口⑩口⑬ |-⑧⑨⑩|
⑭口口口 |⑪⑫⑬⑭|
5
口⑥⑥口 |①②-③|
②口④口 |-④⑤-|
⑤⑥⑥口 |⑥---|
口③③① |----|
6
口⑦⑦④ |①-②-|
③⑥口③ |③-④-|
口⑤⑤② |--⑤-|
①口口① |⑥-⑦-|
7
口口口① |--①-|
②口口口 |②-③-|
口④⑤③ |④-⑤-|
口⑥⑦口 |⑥-⑦-|
8
④⑦⑦口 |①-②-|
③口⑥③ |③-④-|
②⑤⑤口 |--⑤-|
①口口① |⑥-⑦-|
9
⑤口口① |--①-|
②⑤口口 |②-③-|
口口口③ |④---|
口④④口 |⑤---|
10
口口②④ |①-②-|
口口④② |③-④-|
③⑤⑥⑧ |⑤-⑥-|
①⑦⑧⑥ |⑦-⑧-|
11
口口⑦① |--①-|
口④口⑤ |②-③-|
②口③口 |④-⑤-|
⑥口口口 |⑥-⑦-|
12
④②口口 |①-②-|
②④口口 |③-④-|
⑧⑥⑤③ |⑤-⑥-|
⑥⑧⑦① |⑦-⑧-|
13
③口②④ |--①-|
①⑤口口 |②-③-|
口口⑥口 |④-⑤-|
口⑦口口 |⑥-⑦-|
14
口口②④ |①-②-|
口口④② |③-④-|
③⑤⑥⑧ |⑤-⑥-|
①⑦⑧⑥ |⑦-⑧-|
15
⑥口⑤① |--①-|
②口口口 |②-③-|
口口③口 |④-⑤-|
④口⑦口 |⑥-⑦-|
16
口①口① |①---|
②口口口 |--②-|
④④③口 |③---|
口口口口 |--④-|
17
口口①① |①---|
口口口② |--②-|
口口口口 |③---|
口③口口 |----|
18
①①①口 |①-②-|
口口口② |③-④-|
口口③口
④④口④

⑦口口口
口口⑥口
⑤口口口 |--⑤-|
口口口口 |⑥-⑦-|
19
口①①① |①-②-|
②口口口 |③-④-|
口③口口 |----|
④口④④ |----|
20
⑤⑨口① |①②③-|
②④④⑥ |④-⑤⑥|
口⑧⑧口 |⑦-⑧-|
口⑦③口 |--⑨-|
21
②口口口 |--①-|
口口③口 |②-③④|
④⑦⑤⑦ |⑤-⑥-|
⑥⑥口① |⑦---|
22
①口①① |①-②-|
口②口口 |③-④-|
③⑤⑤口 |--⑤-|
口④④④ |----|
23
①①口① |①-②-|
口口②口 |③-④-|
口口口③
④④④口

口⑤口口
口口口口
口口⑤口 |----|
口口口口 |--⑤-|
24
③口④③ |--①-|
①口口② |②---|
口④口口 |③---|
口口口口 |--④-|
25
④口⑤④ |--①-|
⑤①②口 |②-③-|
③口口⑤ |④---|
口⑤口口 |--⑤-|
26
口①⑥③ |--①-|
⑥③②口 |②-③-|
⑦④③⑥ |④-⑤-|
③⑥⑤口 |⑥-⑦-|
27
④⑥口⑥ |--①-|
口③口口 |②-③-|
口口②口 |④-⑤-|
⑤口⑤① |⑥---|
28
②口①口 |①---|
①③②③ |--②-|
口②口① |----|
③①③② |③---|
29
③⑤⑤② |--①②|
①⑤⑤口 |③-④-|
④③②④ |⑤---|
⑥①口⑥ |⑥---|
30
①口④口 |--①-|
口③口② |②-③-|
口⑤⑤口 |④---|
口口口口 |⑤---|
31
口口③③ |①---|
口口口口 |②-③-|
①口口①
②②口口

口口口口
④口口口
口口口④ |----|
口口口口 |④---|
32
口①口② |①---|
③②③① |--②-|
①口②口 |----|
②③①③ |③---|
33
③⑤⑤④ |--①-|
口口口② |②③④-|
⑥③④⑥ |⑤---|
①口②口 |⑥---|
34
③口口⑥ |--①-|
口口口口 |②-③-|
口⑤②口 |--④-|
口①④口 |⑤-⑥-|
35
口②口口 |--①-|
⑥④⑤③ |②-③-|
口口①⑦ |④-⑤-|
口口口口 |⑥-⑦-|
36
④口①⑤ |--①-|
口②③口 |②-③-|
口⑥⑥口 |④-⑤-|
口口口口 |⑥---|
37
口口口口 |①-②-|
④口口口 |③-④-|
口口口③
①②口①

口口⑤口
口⑥口口
⑧口⑦口 |⑤⑥⑦-|
口口口⑨ |⑧-⑨-|
38
口口口口 |--①-|
口③①口 |②-③-|
⑤口⑤口 |④---|
口④②口 |⑤---|
39
口①④① |①-②-|
⑤口口口 |③-④-|
⑦③⑦⑥ |⑤-⑥-|
口口口② |--⑦-|
40
⑥口⑥口 |--①-|
②口③② |--②-|
口④口口 |③④⑤-|
口①⑤① |⑥---|
41
口④口口 |①-②-|
口口⑤③ |③-④-|
⑥⑦口⑦ |⑤-⑥-|
②①口① |--⑦-|
42
口⑤口⑤ |--①-|
②口③② |--②-|
④口口口 |③-④-|
①口①口 |⑤---|
43
口口④口 |①-②-|
⑤③口口 |③-④-|
⑦口⑦⑥ |⑤-⑥-|
①口①② |--⑦-|
44
口口口口 |--①-|
④口②③ |--②-|
④②口③ |--③-|
口①口① |④---|
45
口①①口 |①---|
口③③口 |--②-|
④口口口 |③---|
②口口② |--④-|
46
口口①① |①-②-|
②口③③ |③-④-|
口口口口
④口口口

口口⑦⑦
口口口口
⑥口⑤⑤ |⑤-⑥-|
口口口口 |⑦---|
47
①⑧口口 |①-②-|
⑦⑥口口 |③-④-|
⑤④口口 |⑤-⑥-|
③②口口 |⑦-⑧-|
48
口口口① |①-②-|
口口②口 |③-④-|
口口口③
口口④口

⑤口口⑧
⑥口口口
⑦口口口 |⑤-⑥-|
口口口口 |⑦-⑧-|
49
口②①口 |①-②-|
口口口③ |③-④-|
口口口④ |⑤-⑥-|
⑥⑦⑧⑤ |⑦-⑧-|
50
口①口口 |①-②-|
口②⑥⑦ |③-④-|
⑧③④⑤ |⑤-⑥-|
口口口口 |⑦-⑧-|
51
④口口口 |①-②-|
②③口口 |③-④-|
口①口口 |⑤-⑥-|
⑤⑥⑦⑧ |⑦-⑧-|
52
⑦⑥⑤④ |①-②-|
口口口⑧ |③-④-|
①②③口 |⑤-⑥-|
口口口口 |⑦-⑧-|
53
口口口口 |①-②-|
口②①口 |③-④-|
③④口口
口口口口

口口口口
⑦⑧口口
口口⑤⑥ |⑤-⑥-|
口口口口 |⑦-⑧-|
54
⑥⑥③③ |①-②-|
口口①口 |③-④-|
口口口④ |--⑤-|
②口⑤口 |⑥---|
55
口口口口 |①-②-|
③③口口 |③-④-|
①口口口
④①口②

口口⑥口
口口口口
⑦⑤口口 |--⑤-|
口口口口 |⑥-⑦-|
56
口口口① |①-②-|
②②②② |----|
口口口口 |----|
口②②口 |----|
57
口口口口 |----|
①口①口 |----|
口①口① |①---|
口口口口 |----|
58
①口口⑤ |--①-|
口②⑥口 |②-③-|
③口口⑦ |④-⑤-|
口④口口 |⑥-⑦-|
59
口口口口 |①-②-|
②口口④ |③-④-|
口口口口
口口①③

⑧口口口
⑧口⑦口
口⑥⑦口 |⑤-⑥-|
⑤⑥口口 |⑦-⑧-|
60
口口②口 |----|
③口口口 |①---|
口口④① |--②-|
口口①口 |③-④-|
61
④口口口 |①-②-|
口⑥⑥② |③-④-|
⑤口口口 |⑤-⑥-|
①⑦⑦③ |⑦---|
62
⑥口①口 |--①②|
②口口口 |③④⑤⑥|
口④⑤③
口口口口

口口⑬⑪
⑭⑫⑨⑦
⑧口口口 |⑦⑧⑨⑩|
口⑩口口 |⑪⑫⑬⑭|
63
④⑩口⑩ |①②③④|
口口⑨⑨ |⑤⑥⑦⑧|
⑧②⑤① |⑨---|
⑥口③⑦ |⑩---|
64
口口口口 |--①-|
口口口口 |----|
口口口口
①①①①

②②②②
口③口③
口口口口 |②---|
③口③口 |--③-|
65
③⑤⑤② |----|
①口口口 |①②③-|
④③②④ |④-⑤-|
⑥①口⑥ |--⑥-|
66
口③口② |----|
①口④口 |①-②-|
口⑤⑤口 |③-④-|
口口口口 |--⑤-|
67
口口口口 |--①-|
口口口口 |--②-|
①口口①
②②口口

口口③③
④口口口
口口口④ |③---|
口口口口 |--④-|
68
口①口② |--①-|
③②③① |----|
①口②口 |②---|
②③①③ |--③-|
69
③⑤⑤④ |----|
口口口② |①-②③|
⑥③④⑥ |④-⑤-|
①口②口 |--⑥-|
70
③口口口 |----|
口口口口 |①-②-|
口⑤②口 |③---|
口①④口 |④-⑤-|
71
口③口① |①---|
⑦⑤⑥④ |②-③-|
口口②口 |④-⑤-|
口口口口 |⑥-⑦-|
72
③口口③ |①---|
口口口口 |--②-|
口②②① |----|
口口口口 |③---|
73
口口口口 |--①-|
①口口① |----|
口口口口 |----|
口①①口 |----|
74
口口口口 |----|
口口口口 |----|
口口口口 |----|
①口①口 |--①-|
75
口①④① |--①-|
⑤口口口 |②-③-|
口③口⑥ |④-⑤-|
口口口② |⑥---|
76
⑦口⑦口 |①---|
③口④③ |②---|
①⑤①口 |③-④⑤|
口②⑥② |⑥-⑦-|
77
口④口口 |--①-|
口口⑤③ |②-③-|
⑥口口口 |④-⑤-|
②①口① |⑥---|
78
口⑦口⑦ |①---|
③④口③ |②---|
口①⑤① |③-④⑤|
②⑥②口 |⑥-⑦-|
79
口口④口 |--①-|
⑤③口口 |②-③-|
口口口⑥ |④-⑤-|
①口①② |⑥---|
80
①口口① |①---|
口⑤④口 |②---|
口③③口 |③---|
②⑤④② |④-⑤-|
81
②口口② |--①-|
口③③口 |----|
①口口① |②-③-|
①口口① |----|
82
口口口口 |①-②-|
③口口② |③-④-|
①③②④
口①④口

⑤⑧⑧⑥
口⑤⑥口
⑦口口口 |⑤-⑥-|
口⑦口口 |⑦-⑧-|


不确定度: 0

タグ:

+ タグ編集
  • タグ:

このサイトはreCAPTCHAによって保護されており、Googleの プライバシーポリシー利用規約 が適用されます。

最終更新:2012年11月27日 22:09