脱法ロック
Neru

BASIC

Level: 3
BPM: 155
Notes: 185

1
口口口口 |----|
口口口口 |----|
口口口口 |----|
口口口口 |----|
2
口口口口 |----|
口口口口 |----|
口口口口 |----|
口口口口 |----|
3
口口口① |①---|
口口口② |----|
口口口口 |②---|
口口口口 |----|
4
口口口口 |①---|
口口口口 |----|
口口口① |②---|
口口口② |----|
5
①口口口 |①---|
②口口口 |----|
口口口口 |②---|
口口口口 |----|
6
口口口口 |①---|
口口口口 |----|
①口口口 |②---|
②口口口 |----|
7
口口口口 |①---|
口②①口 |----|
口口口口 |②---|
口口口口 |----|
8
口口口口 |①---|
口口口口 |----|
口②①口 |②---|
口口口口 |----|
9
口口口口 |①---|
口口口口 |----|
口口口口 |②---|
口②①口 |----|
10
口口口口 |①---|
口口口口 |----|
口①①口 |----|
口口口口 |----|
11
口口口口 |----|
口①②③ |①---|
口口口口 |②---|
口口口口 |③---|
12
口口口口 |①---|
口口口口 |②---|
口③②① |③---|
口口口口 |----|
13
口口口口 |----|
③②①口 |①---|
口口口口 |②---|
口口口口 |③---|
14
口口口口 |①---|
口口口口 |②---|
①②③口 |③---|
口口口口 |----|
15
口口口口 |----|
口①②③ |①---|
口口口口 |②---|
口口口口 |③---|
16
口口口口 |①---|
口口口口 |②---|
口③②① |③---|
口口口口 |----|
17
口口口口 |----|
③②①口 |①---|
口口口口 |②---|
口口口口 |③---|
18
口口口口 |①---|
口口口口 |②---|
①②③口 |③---|
口口口口 |----|
19
②口口① |①---|
口口口口 |----|
口口口口 |②---|
口口口口 |----|
20
口②①口 |①---|
口口口口 |----|
口口口口 |②---|
口口口口 |----|
21
口口口口 |①---|
②口口① |----|
口口口口 |②---|
口口口口 |----|
22
口口口口 |①---|
口②①口 |----|
口口口口 |②---|
口口口口 |----|
23
口口口口 |①---|
口口口口 |----|
②口口① |②---|
口口口口 |----|
24
口口口口 |①---|
口口口口 |----|
口②①口 |②---|
口口口口 |----|
25
口口口口 |①---|
口口口口 |----|
口口口口 |②---|
②口口① |----|
26
口口口口 |--①-|
口口口口 |②---|
口①①口 |----|
口②②口 |----|
27
口口口② |①---|
口口口口 |----|
口①①口 |----|
口口口口 |--②-|
28
口口口口 |--①-|
口口①口 |--②-|
口②口口 |----|
口口口口 |----|
29
①口口口 |①---|
②口口口 |②---|
③口口口 |③---|
口口口口 |----|
30
口口口口 |①---|
④③②① |②---|
口口口口 |③---|
口口口口 |④---|
31
②口口口 |①---|
口口口口 |----|
口①①口 |----|
口口口口 |--②-|
32
口口口口 |--①-|
口①口口 |--②-|
口口②口 |----|
口口口口 |----|
33
④口口③ |①---|
②口口① |②---|
口口口口 |③---|
口口口口 |④---|
34
口口口口 |----|
口口口口 |①---|
口①①口 |----|
口口口口 |----|
35
①口口口 |①---|
口②口口 |②---|
口口③口 |③---|
口口口④ |④---|
36
口口口口 |①---|
②②①① |----|
口口口口 |②---|
口口口口 |----|
37
口口口① |①---|
口口②口 |②---|
口③口口 |③---|
④口口口 |④---|
38
口口口口 |①---|
①①②② |----|
口口口口 |②---|
口口口口 |----|
39
①口口口 |①---|
口②口口 |②---|
口口③口 |③---|
口口口④ |④---|
40
口口口口 |①---|
②②①① |----|
口口口口 |②---|
口口口口 |----|
41
口口口口 |①---|
口④口口 |--②-|
③口口① |--③-|
口②口口 |--④-|
42
口口口口 |----|
口口①① |----|
口口②② |①---|
口口口口 |②---|
43
口口口① |①---|
口口②口 |②---|
口③口口 |③---|
④口口口 |④---|
44
口口口口 |①---|
①①②② |----|
口口口口 |②---|
口口口口 |----|
45
①口口口 |①---|
口②口口 |②---|
口口③口 |③---|
口口口④ |④---|
46
口口口口 |①---|
②②①① |----|
口口口口 |②---|
口口口口 |----|
47
口口口① |①---|
口口②口 |②---|
口③口口 |③---|
④口口口 |④---|
48
口口口口 |①---|
①①②② |----|
口口口口 |②---|
口口口口 |----|
49
口口口口 |①---|
口口④口 |--②-|
①口口③ |--③-|
口口②口 |--④-|
50
口口口口 |----|
①①口口 |----|
②②口口 |①---|
口口口口 |②---|
51
①口口① |①---|
②口口② |--②-|
③口口③ |----|
口口口口 |③---|
52
口口口口 |----|
口①①口 |----|
口口口口 |①---|
口口口口 |----|
53
口口口口 |----|
口①②③ |①---|
口口口口 |②---|
口口口口 |③---|
54
口口口口 |①---|
口口口口 |②---|
口③②① |③---|
口口口口 |----|
55
口口口口 |----|
③②①口 |①---|
口口口口 |②---|
口口口口 |③---|
56
口口口口 |①---|
口口口口 |②---|
①②③口 |③---|
口口口口 |----|
57
口口口口 |----|
口①②③ |①---|
口口口口 |②---|
口口口口 |③---|
58
口口口口 |①---|
口口口口 |②---|
口③②① |③---|
口口口口 |----|
59
口口口口 |----|
③②①口 |①---|
口口口口 |②---|
口口口口 |③---|
60
口口口口 |①---|
口口口口 |②---|
①②③口 |③---|
口口口口 |----|
61
口口口口 |----|
②口口① |①---|
口口口③ |②---|
口口口口 |③---|
62
口口口口 |①---|
口③③口 |②---|
①②②口 |③---|
口口口口 |----|

不確定度: 0

最終更新:2018年07月16日 23:05