脱法ロック
Neru

ADVANCED

Level: 6
BPM: 155
Notes: 408

1
口口口口 |----|
口口口口 |----|
口口口口 |----|
口口口口 |----|
2
口口口口 |----|
①口口① |----|
口口口口 |①---|
口口口口 |----|
3
④④口口 |①---|
口口口口 |②---|
口③②① |③---|
口口口口 |--④-|
4
口口口口 |----|
口口口① |--①-|
口口口① |----|
口口口口 |----|
5
口口④④ |①---|
口口口口 |②---|
①②③口 |③---|
口口口口 |--④-|
6
口口口口 |----|
①口口口 |--①-|
①口口口 |----|
口口口口 |----|
7
④④口口 |①---|
口口口口 |②---|
口③②① |③---|
口口口口 |--④-|
8
口口口口 |----|
口口口① |--①-|
②口口① |----|
口口口口 |--②-|
9
口②②口 |①---|
①口口口 |--②-|
口③④⑤ |--③-|
口口口口 |④-⑤-|
10
④口口口 |①---|
①⑤③① |----|
口②口口 |②-③-|
口口口口 |④-⑤-|
11
口③口口 |①-②-|
口口口④ |③---|
⑤口①口 |④---|
口口口② |⑤---|
12
口口④④ |①-②-|
口①④④ |③---|
口口②口 |④---|
口口口③ |----|
13
口口①口 |----|
②口口口 |①---|
口口口③ |②---|
口口口口 |③---|
14
④④口口 |①-②-|
④④①口 |③---|
口②口口 |④---|
③口口口 |----|
15
口①口口 |----|
口口口② |①---|
③口口口 |②---|
口口口口 |③---|
16
口口④④ |①-②-|
口①④④ |③---|
口口②口 |④---|
口口口③ |----|
17
口口①口 |----|
②口口口 |①---|
口口口③ |②---|
口口口口 |③---|
18
④④口口 |①-②-|
④④①口 |③---|
口②口口 |④---|
③口口口 |----|
19
口口口口 |①-②-|
④口口③ |③-④-|
②口口①
口口口口

口口口⑤
口口口口
⑥口口口 |⑤---|
口⑥口口 |--⑥-|
20
①口④口 |--①-|
口②口口 |②-③-|
口口③口 |--④-|
口口口⑤ |--⑤-|
21
口口口口 |①-②-|
③口口④ |③-④-|
①口口②
口口口口

⑤口口口
口口口口
口口口⑥ |⑤---|
口口⑥口 |--⑥-|
22
口④口① |--①-|
口口②口 |②-③-|
口③口口 |--④-|
口口口口 |----|
23
口口口口 |①-②-|
④口口③ |③-④-|
②口口①
口口口口

口口口⑤
口口口口
⑥口口口 |⑤---|
口⑥口口 |--⑥-|
24
①口④口 |--①-|
口②口⑤ |②-③-|
口口③口 |--④-|
口口口口 |--⑤-|
25
口口口口 |①---|
口口①⑤ |--②-|
口口口④ |--③-|
口②②③ |④-⑤-|
26
口口口口 |--①-|
②口②口 |②---|
②口②口 |----|
口①口口 |----|
27
③口口口 |①-②-|
口口①① |--③-|
口口②②
口口口口

口口④口
口⑤口口
口口⑥口 |--④-|
口口口口 |⑤-⑥-|
28
口口口口 |--①-|
③⑥口口 |②-③-|
②口⑤口 |--④-|
①口口④ |⑤-⑥-|
29
②口口① |①---|
②口口① |②---|
口口口口
口口口口

口口口⑤
口④口口
口口口口 |③--④|
口口③口 |--⑤-|
30
④口口口 |--①-|
口口口⑤ |②-③-|
①②③⑤ |④---|
口口口口 |⑤---|
31
口口口③ |①-②-|
①①口口 |--③-|
②②口口
口口口口

口④口口
口口⑤口
口⑥口口 |--④-|
口口口口 |⑤-⑥-|
32
口口口口 |--①-|
口⑥口③ |②-③-|
口口⑤② |--④-|
口④口① |⑤-⑥-|
33
⑧口口⑦ |①-②-|
⑥口口⑤ |③-④-|
④口口③ |⑤-⑥-|
②口口① |⑦-⑧-|
34
口口口口 |----|
口①①口 |①---|
口②③④ |--②-|
口口口口 |③-④-|
35
①①②② |①---|
①①②② |②---|
③③④④ |③---|
③③④④ |④---|
36
口口口口 |①-②-|
口①②口 |--③-|
③④⑤口 |④-⑤-|
口口口口 |----|
37
①①②② |①---|
①①②② |②---|
③③④④ |③---|
③③④④ |④---|
38
口口口口 |①-②-|
口②①口 |--③-|
③④⑤口 |④-⑤-|
口口口口 |----|
39
①①②② |①---|
①①②② |②---|
③③④④ |③---|
③③④④ |④---|
40
⑥口口口 |①-②-|
口①②口 |--③-|
③④⑤口 |④-⑤-|
口口口口 |--⑥-|
41
口④口③ |①-②-|
①⑤⑤⑤ |--③-|
②④口③ |--④-|
口口口口 |--⑤-|
42
①口口口 |--①-|
口口口口 |②-③-|
②③④⑤ |④-⑤-|
口⑥⑥口 |⑥---|
43
②②①① |①---|
②②①① |②---|
④④③③ |③---|
④④③③ |④---|
44
口口口口 |①-②-|
口②①口 |--③-|
口⑤④③ |④-⑤-|
口口口口 |----|
45
②②①① |①---|
②②①① |②---|
④④③③ |③---|
④④③③ |④---|
46
口口口口 |①-②-|
口①②口 |--③-|
口⑤④③ |④-⑤-|
口口口口 |----|
47
②②①① |①---|
②②①① |②---|
④④③③ |③---|
④④③③ |④---|
48
口口口⑥ |①-②-|
口②①口 |--③-|
口⑤④③ |④-⑤-|
口口口口 |--⑥-|
49
③口④口 |①-②-|
⑤⑤⑤① |--③-|
③口④② |--④-|
口口口口 |--⑤-|
50
口口口① |--①-|
口口口口 |②-③-|
⑤④③② |④-⑤-|
口⑥⑥口 |⑥---|
51
②⑤⑤① |①--②|
②④③① |--③-|
口④③口 |-④--|
口口口口 |⑤---|
52
口口口口 |----|
口①①口 |----|
口②②口 |①-②-|
口口口口 |----|
53
口①口口 |----|
口口口② |①---|
③口口口 |②---|
口口口口 |③---|
54
口口④④ |①-②-|
口①④④ |③---|
口口②口 |④---|
口口口③ |----|
55
口口①口 |----|
②口口口 |①---|
口口口③ |②---|
口口口口 |③---|
56
④④口口 |①-②-|
④④①口 |③---|
口②口口 |④---|
③口口口 |----|
57
口①口口 |----|
口口口② |①---|
③口口口 |②---|
口口口口 |③---|
58
口口④④ |①-②-|
口①④④ |③---|
口口②口 |④---|
口口口③ |----|
59
口口①口 |----|
②口口口 |①---|
口口口③ |②---|
口口口口 |③---|
60
④④口口 |①-②-|
④④①口 |③---|
口②口口 |④---|
③口口口 |----|
61
口①①口 |----|
口②②口 |①---|
口③③口 |②---|
口口口口 |③---|
62
①口口① |①-②-|
②④④② |③---|
③④④③ |④---|
口口口口 |----|

不確定度: 0

最終更新:2018年07月16日 23:05