ようこそジャパリパークへ
どうぶつビスケッツ×PPP

BASIC

Level: 1
BPM: 170
Notes: 96

1
口口口口 |----|
口口口口 |----|
口口口口 |----|
口口口口 |----|
2
口口口口 |----|
口口口口 |----|
口口口口 |----|
口口口口 |----|
3
口口口口 |----|
口口口口 |----|
口口口口 |----|
口口口口 |----|
4
口口口口 |①---|
口②②口 |----|
口①①口 |----|
口口口口 |--②-|
5
口口口口 |----|
口口口口 |----|
口口口口 |----|
口口口口 |----|
6
①②口口 |①---|
口口口口 |----|
口口口口 |②---|
口口口口 |----|
7
口口口口 |①---|
口①②口 |----|
口口口口 |②---|
口口口口 |----|
8
口口口口 |①---|
口口口口 |----|
口口①口 |----|
口口口口 |----|
9
口口口口 |----|
口口口口 |----|
口口口口 |----|
口口口口 |----|
10
口口口口 |----|
口口口口 |----|
口口口口 |----|
口口口口 |----|
11
口口口口 |①---|
口②②口 |----|
口①①口 |②---|
口口口口 |----|
12
口①②口 |①---|
口口口口 |----|
口口口口 |②---|
口口口口 |----|
13
口口口口 |①---|
口①②口 |----|
口口口口 |②---|
口口口口 |----|
14
口口口口 |①---|
口口口口 |----|
口①口口 |----|
口口口口 |----|
15
口口口口 |----|
口口口口 |----|
口口口口 |----|
口口口口 |----|
16
口口口口 |①---|
口口口口 |----|
口口口口 |②---|
口②①口 |----|
17
口口口口 |①---|
口口口口 |----|
口②①口 |②---|
口口口口 |----|
18
口口口口 |①---|
口口①口 |----|
口口口口 |----|
口口口口 |----|
19
口口口口 |----|
口口口口 |----|
口口口口 |----|
口口口口 |----|
20
口口口口 |①---|
口口口① |----|
口口口口 |----|
口口口口 |----|
21
口口口口 |①---|
口口口口 |----|
口口①口 |----|
口口口口 |----|
22
口口口口 |①---|
口口口口 |----|
口①口口 |----|
口口口口 |----|
23
口口口口 |①---|
①口口口 |----|
口口口口 |----|
口口口口 |----|
24
口①口口 |①---|
口口口口 |----|
口口口口 |----|
口口口口 |----|
25
口口①口 |①---|
口口口口 |----|
口口口口 |----|
口口口口 |----|
26
口口口口 |①---|
口①口口 |----|
口口口口 |----|
口口口口 |----|
27
口口口口 |①---|
口口①口 |----|
口口口口 |----|
口口口口 |----|
28
口口口口 |----|
口口口口 |----|
口口口口 |----|
口口口口 |----|
29
口口口口 |①---|
口②②口 |----|
口①①口 |----|
口口口口 |--②-|
30
口口口口 |----|
口口口口 |----|
口口口口 |----|
口口口口 |----|
31
①②口口 |①---|
口口口口 |----|
口口口口 |②---|
口口口口 |----|
32
口口口口 |①---|
口①②口 |----|
口口口口 |②---|
口口口口 |----|
33
口口口口 |①---|
口②②口 |----|
口①①口 |----|
口口口口 |--②-|
34
口口口口 |----|
口口口口 |----|
口口口口 |----|
口口口口 |----|
35
口口②① |①---|
口口口口 |----|
口口口口 |②---|
口口口口 |----|
36
口口口口 |①---|
口②①口 |----|
口口口口 |②---|
口口口口 |----|
37
口口口口 |①---|
口口口口 |----|
口①口口 |----|
口口口口 |----|
38
口口口口 |①---|
口口口口 |----|
口口口口 |----|
①口口口 |----|
39
口口口口 |①---|
口口口口 |----|
口口口口 |----|
口①口口 |----|
40
口口口口 |①---|
口口口口 |----|
口口口口 |----|
口口①口 |----|
41
口口口口 |①---|
口口口口 |----|
口口口口 |----|
口口口① |----|
42
口口口口 |①---|
口口口口 |----|
口口①口 |----|
口口口口 |----|
43
口口口口 |①---|
口①口口 |----|
口口口口 |----|
口口口口 |----|
44
①口口口 |①---|
口口口口 |----|
口口口口 |----|
口口口口 |----|
45
口口①口 |①---|
口口口口 |----|
口口口口 |----|
口口口口 |----|
46
口口口口 |①---|
口②②口 |----|
口①①口 |②---|
口口口口 |----|
47
①②口口 |①---|
口口口口 |----|
口口口口 |②---|
口口口口 |----|
48
口口①② |①---|
口口口口 |----|
口口口口 |②---|
口口口口 |----|
49
口口口口 |①---|
口①②口 |----|
口口口口 |②---|
口口口口 |----|
50
口口口口 |①---|
口口口口 |----|
口①②口 |②---|
口口口口 |----|
51
口口口口 |①---|
口口口口 |----|
口口口口 |②---|
①②口口 |----|
52
口口口口 |①---|
口口口口 |----|
口口口口 |②---|
口口①② |----|
53
口口口口 |①---|
口口口口 |----|
口①②口 |②---|
口口口口 |----|
54
口口口口 |①---|
口①②口 |----|
口口口口 |②---|
口口口口 |----|
55
①②口口 |①---|
口口口口 |----|
口口口口 |②---|
口口口口 |----|
56
口口①② |①---|
口口口口 |----|
口口口口 |②---|
口口口口 |----|
57
口口口口 |①---|
口①②口 |----|
口口口口 |②---|
口口口口 |----|
58
口口口口 |①---|
口口口口 |----|
口①②口 |②---|
口口口口 |----|
59
口口口口 |①---|
口口口口 |----|
口口口口 |②---|
①②口口 |----|
60
口口口口 |①---|
口口口口 |----|
口口口口 |②---|
口口①② |----|
61
口口口口 |①---|
口口口口 |----|
口①②口 |②---|
口口口口 |----|
62
口口口口 |①---|
口①②口 |----|
口口口口 |②---|
口口口口 |----|
63
口①口口 |①---|
口口②口 |----|
口口口口 |②---|
口口口口 |----|
64
口口口口 |①---|
口口口口 |----|
口①口口 |②---|
口口②口 |----|

不確定度: 0

最終更新:2018年07月16日 23:04