ようこそジャパリパークへ
どうぶつビスケッツ×PPP

ADVANCED

Level: 5
BPM: 170
Notes: 244

1
口口口口 |----|
口口口口 |----|
口口口口 |----|
口口口口 |----|
2
口口口口 |----|
口口口口 |----|
口口口口 |----|
口口口口 |----|
3
口口口口 |----|
口口口口 |----|
口口口口 |----|
口口口口 |----|
4
口②②口 |①---|
口口口口 |--②-|
③口口③ |----|
口①①口 |--③-|
5
①口口① |----|
口口口口 |--①-|
口口口口 |----|
口口口口 |----|
6
③口口② |①---|
口口口口 |②---|
口口口口 |③---|
④①口口 |④---|
7
④口口口 |①---|
口口口③ |②---|
②口口口 |③---|
口口口① |④---|
8
口口口口 |①---|
口口口口 |----|
口①①口 |----|
口口口口 |----|
9
口口口口 |----|
口口口口 |----|
口口口口 |----|
口口口口 |----|
10
口口口口 |----|
口口口口 |----|
口口口口 |----|
口口口口 |----|
11
②②②② |①---|
口口口口 |----|
口口口口 |②---|
口①①口 |----|
12
口口④口 |①---|
口③口口 |②---|
口口②口 |③---|
口①口口 |④---|
13
②口口④ |①---|
口口口口 |②---|
①口口③ |③---|
口口口口 |④---|
14
口口口口 |①---|
口①①口 |----|
口口口口 |----|
口口口口 |----|
15
口口口口 |①---|
口①①口 |----|
口口口口 |----|
口口口口 |----|
16
口④口口 |①---|
口口③口 |②---|
口②口口 |③---|
口口①口 |④---|
17
④口口② |①---|
口口口口 |②---|
③口口① |③---|
口口口口 |④---|
18
口口口口 |①---|
口①①口 |----|
口口口口 |----|
口口口口 |----|
19
口口口口 |①---|
③口口③ |②---|
②口口② |③---|
①口口① |----|
20
口④口口 |①---|
③口口口 |②---|
口②口口 |③---|
①口口口 |④---|
21
口口④口 |①---|
口口口③ |②---|
口口②口 |③---|
口口口① |④---|
22
口③③口 |①---|
口②④口 |②---|
口①口口 |③---|
口⑤口口 |④-⑤-|
23
口口口口 |----|
①口口① |--①-|
口口口口 |----|
口口口口 |----|
24
口口口口 |①---|
口②②口 |----|
口口①口 |②---|
口口口口 |----|
25
口口口口 |①---|
口口口口 |----|
口②②口 |②---|
①口口① |----|
26
口口口口 |①---|
口口口口 |②---|
③口口④ |③---|
口①②口 |④---|
27
③口口口 |①---|
①口口② |②---|
口口口口 |③---|
口口口口 |----|
28
口口口口 |----|
口③③③ |①---|
口②②口 |②---|
口①口口 |③---|
29
口②②口 |①---|
口口口口 |--②-|
③口口③ |----|
口①①口 |--③-|
30
①口口① |----|
口口口口 |--①-|
口口口口 |----|
口口口口 |----|
31
③口口② |①---|
口口口口 |②---|
口口口口 |③---|
④①口口 |④---|
32
口口①口 |①---|
口②口口 |②---|
口口③口 |③---|
口口口口 |----|
33
口②②口 |①---|
口口口口 |--②-|
③口口③ |----|
口①①口 |--③-|
34
①口口① |----|
口口口口 |--①-|
口口口口 |----|
口口口口 |----|
35
③口口② |①---|
口口口口 |②---|
口口口口 |③---|
④①口口 |④---|
36
④口口口 |①---|
口口口③ |②---|
②口口口 |③---|
口口口① |④---|
37
口口口口 |①---|
口口口口 |----|
口①①口 |----|
口口口口 |----|
38
口口①口 |①---|
口②口口 |----|
口口口口 |②---|
口口口口 |----|
39
口口口口 |①--②|
口④③口 |--③-|
口②⑤口 |④--⑤|
口⑥①口 |--⑥-|
40
口口口口 |①---|
口②②口 |----|
口口口口 |②---|
口口口① |----|
41
①②口口 |①---|
口口口口 |----|
口口口口 |②---|
口口口口 |----|
42
口口①口 |①---|
口口口口 |----|
口口口口 |----|
口口口口 |----|
43
口口口口 |①---|
口口口口 |----|
口口口口 |②---|
口口②① |----|
44
口口口口 |①---|
口口口口 |----|
口口口口 |②---|
②①口口 |----|
45
口口口口 |①---|
口口①口 |----|
口口口口 |----|
口口口口 |----|
46
②②②② |①---|
口口口口 |----|
口口口口 |②---|
口①①口 |----|
47
④口口口 |①---|
③口口口 |②---|
②口口口 |③---|
①口口口 |④---|
48
口口口④ |①---|
口口口③ |②---|
口口口② |③---|
口口口① |④---|
49
口①①口 |①---|
口②②口 |②---|
口③③口 |③---|
口④④口 |④---|
50
④口口④ |①---|
③口口③ |②---|
②口口② |③---|
①口口① |④---|
51
口①口口 |①---|
口②口口 |②---|
口③口口 |③---|
口④口口 |④---|
52
口口①口 |①---|
口口②口 |②---|
口口③口 |③---|
口口④口 |④---|
53
①口口① |①---|
②口口② |②---|
③口口③ |③---|
④口口④ |④---|
54
口口口口 |①---|
口②②口 |----|
口口口口 |②---|
口①①口 |----|
55
①口口口 |①---|
②口口口 |②---|
③口口口 |③---|
④口口口 |④---|
56
口口口① |①---|
口口口② |②---|
口口口③ |③---|
口口口④ |④---|
57
口①①口 |①---|
口②②口 |②---|
口③③口 |③---|
口④④口 |④---|
58
④口口④ |①---|
③口口③ |②---|
②口口② |③---|
①口口① |④---|
59
口①口口 |①---|
口②口口 |②---|
口③口口 |③---|
口④口口 |④---|
60
口口①口 |①---|
口口②口 |②---|
口口③口 |③---|
口口④口 |④---|
61
①口口① |①---|
②口口② |②---|
③口口③ |③---|
④口口④ |④---|
62
口口口口 |①---|
口②②口 |----|
口口口口 |②---|
口①①口 |----|
63
①口口① |①---|
口③③口 |----|
口口口口 |②---|
②口口② |--③-|
64
②口口② |----|
口口口口 |①---|
口口口口 |②---|
口①①口 |----|

不確定度: 0

最終更新:2018年07月16日 23:04