ユメイロコンパス
fourfolium

ADVANCED

Level: 4
BPM: 130
Notes: 276

1
口口口口 |----|
口口口口 |----|
口口口口 |----|
口口口口 |----|
2
口口口口 |----|
口口口口 |----|
口口口口 |----|
口口口口 |----|
3
口口①口 |①---|
口②口口 |----|
口口口口 |②---|
口口口口 |----|
4
口口口口 |①---|
口口口口 |----|
口口①口 |②---|
口②口口 |----|
5
③③②② |①---|
口口口口 |----|
①口口① |--②-|
口口口口 |--③-|
6
口口口口 |----|
口口口口 |----|
口口口口 |----|
口口口口 |----|
7
口口⑥口 |①---|
①⑤④① |②---|
口③口口 |③-④-|
②口口② |⑤-⑥-|
8
口口口口 |----|
口口口口 |----|
口③②口 |--①-|
口①口口 |②-③-|
9
口口口口 |①---|
①③口① |②---|
口⑤④口 |③-④-|
②口⑥② |⑤-⑥-|
10
口口口口 |----|
口③口口 |----|
口①②口 |--①-|
口口口口 |②-③-|
11
口口口口 |①---|
口口①口 |②---|
②口口②
口口口口

口③口口
口⑤口④
口口口⑥ |③-④-|
口口口口 |⑤-⑥-|
12
口口口口 |--①-|
③口②口 |②-③-|
①口口口 |----|
口口口口 |----|
13
①口口① |①---|
⑤口口③ |②---|
②⑥④② |③-④-|
口口口口 |⑤-⑥-|
14
口口口口 |----|
口口口口 |----|
口口口口 |----|
口口口口 |----|
15
口⑦口口 |①---|
①⑤⑥① |②-③-|
口③④口 |④-⑤-|
②口口② |⑥-⑦-|
16
口口口口 |----|
口口口口 |----|
口③②口 |--①-|
口①口口 |②-③-|
17
⑤口口③ |①---|
②⑥④① |②---|
②口口① |③-④-|
口口口口 |⑤-⑥-|
18
口口口口 |----|
口口口口 |----|
口口③口 |--①-|
②口①口 |②-③-|
19
③口口口 |①---|
⑤口④② |②---|
①口⑥口 |③-④-|
口口口口 |⑤-⑥-|
20
口口③口 |--①-|
口②口口 |②-③-|
①口口口 |----|
口口口口 |----|
21
①口口① |①---|
②口口② |②---|
口口口口
口口口口

口口口口
口口⑤⑤
③口口③ |③-④-|
口④④口 |--⑤-|
22
②口口② |--①-|
①①口口 |--②-|
口口口口 |----|
口口口口 |----|
23
口③口口 |①---|
②口④口 |----|
口①①口 |--②-|
口口口口 |③-④-|
24
口口口口 |①---|
口⑤⑤② |②-③-|
口①③口 |--④-|
④口口口 |--⑤-|
25
口③②口 |----|
口口口① |----|
口口口口 |①-②-|
口口口口 |③---|
26
口③③口 |①---|
口口口② |②-③-|
①口口口 |----|
口口口口 |----|
27
口③口口 |①---|
口②口口 |--②-|
口口口口 |③---|
①口①口 |----|
28
口口口口 |①---|
口口②口 |--②-|
口口口口
口①口①

口口③口
口口口口
口口⑤口 |③---|
口④口口 |④-⑤-|
29
③口口② |①---|
口①口口 |②-③-|
口口口口
口口口口

口口口口
口⑥⑥口
口⑥⑥口 |--④-|
④口口⑤ |⑤-⑥-|
30
口口口口 |----|
口口口口 |----|
口口口口 |----|
口口口口 |----|
31
③口③口 |①---|
口⑤口口 |②---|
口②④② |③---|
①口①口 |④-⑤-|
32
口④③口 |--①-|
④口口③ |②-③-|
②口口① |④---|
口②①口 |----|
33
口③口③ |①---|
口口⑤口 |②---|
②④②口 |③---|
口①口① |④-⑤-|
34
口②②口 |--①-|
口口口口 |②---|
③③③③ |③---|
口①①口 |----|
35
①口②口 |①---|
①⑤②口 |②---|
口口④口 |③---|
③③口口 |④-⑤-|
36
口口口口 |--①-|
口口口口 |②-③-|
②口口① |④---|
④口口③ |----|
37
口②口① |①---|
口②⑤① |②---|
口④口口 |③---|
口口③③ |④-⑤-|
38
①口口① |--①-|
②口口② |②-③-|
③口口③ |----|
口口口口 |----|
39
口③口③ |①---|
口口⑤口 |②---|
②④②口 |③---|
口①口① |④-⑤-|
40
口③④口 |--①-|
③口口④ |②-③-|
①口口② |④---|
口①②口 |----|
41
③口③口 |①---|
口⑤口口 |②---|
口②④② |③---|
①口①口 |④-⑤-|
42
②口口③ |--①-|
口④④口 |②-③-|
口④④口 |④---|
口①①口 |----|
43
口②口① |①---|
口②口① |②---|
口口口口
口口口口

口口口口
口⑤⑤口
④口③口 |③---|
④口③口 |④-⑤-|
44
口口口口 |----|
口②③口 |----|
口口①口 |--①-|
口口口口 |②-③-|
45
口①口口 |①---|
①口口口 |②---|
口口口②
口口②口

口④口口
④口③口
口③口口 |③---|
口口口口 |④---|
46
②③③② |①---|
口③③口 |--②-|
口口口① |③---|
④口①④ |--④-|
47
口口口口 |①---|
口口口口 |----|
口①①口 |----|
口①①口 |----|
48
③⑥⑥④ |--①-|
③⑤⑤④ |②-③-|
①口口② |④---|
①口口② |⑤-⑥-|
49
口口口口 |--①-|
口口口口 |②---|
①②②① |----|
口②②口 |----|

不確定度: 0

最終更新:2018年07月16日 23:03