ススメRunner!!
fourfolium

BASIC

Level: 2
BPM: 176
Notes: 130

1
口口口口 |----|
口口口口 |----|
口口口口 |----|
口口口口 |----|
2
口①①口 |①---|
口②②口 |----|
口口口口 |②---|
口口口口 |----|
3
口口口口 |①---|
口口口口 |----|
口①①口 |----|
口口口口 |----|
4
①口口① |①---|
②口口② |----|
口口口口 |②---|
口口口口 |----|
5
口口口口 |①---|
口口口口 |----|
①口口① |----|
口口口口 |----|
6
口口口口 |①---|
口①口口 |----|
口口口口 |----|
口口口口 |----|
7
口口口口 |①---|
口口口口 |----|
口口①口 |----|
口口口口 |----|
8
口口口口 |①---|
口口口口 |----|
口口口口 |----|
口①口口 |----|
9
口口口口 |①---|
口口口口 |----|
口口口口 |----|
口口①口 |----|
10
口口口口 |①---|
口口口口 |----|
口口口口 |②---|
口口②① |----|
11
口口口口 |①---|
口口口口 |----|
口②①口 |②---|
口口口口 |----|
12
口口口口 |①---|
②①口口 |----|
口口口口 |②---|
口口口口 |----|
13
①②口口 |①---|
口口口口 |----|
口口口口 |②---|
口口口口 |----|
14
口口口口 |①---|
口①口口 |----|
口②口口 |②---|
口口口口 |----|
15
口口口口 |①---|
口口口口 |----|
口口①口 |②---|
口口②口 |----|
16
口口口口 |①---|
口口口口 |----|
口口口② |②---|
口口口① |----|
17
口口口口 |①---|
口口口口 |----|
口②口口 |②---|
口①口口 |----|
18
口口口口 |①---|
口口口口 |----|
口口口口 |②---|
①②口口 |----|
19
口口口口 |①---|
口口口口 |----|
口①②口 |②---|
口口口口 |----|
20
口口口口 |①---|
口口①② |----|
口口口口 |②---|
口口口口 |----|
21
口口②① |①---|
口口口口 |----|
口口口口 |②---|
口口口口 |----|
22
口口口口 |①---|
口口①口 |----|
口口②口 |②---|
口口口口 |----|
23
口口口口 |①---|
口口口口 |----|
口①口口 |②---|
口②口口 |----|
24
口口口口 |①---|
口口口口 |----|
②口口口 |②---|
①口口口 |----|
25
口口口口 |①---|
口口口口 |----|
口口②口 |②---|
口口①口 |----|
26
口口口口 |①---|
口①口口 |----|
口口口口 |----|
口口口口 |----|
27
口口口口 |①---|
口口①口 |----|
口口口口 |----|
口口口口 |----|
28
口口口口 |①---|
口口口口 |----|
口①口口 |----|
口口口口 |----|
29
口口口口 |①---|
口口口口 |----|
口口①口 |----|
口口口口 |----|
30
口口口口 |①---|
口口口口 |----|
口口口口 |----|
口①口口 |----|
31
口口口口 |①---|
口口口口 |----|
口口口口 |----|
口口①口 |----|
32
口口口口 |①---|
口口②口 |----|
口①口口 |②---|
口口口口 |----|
33
口①②口 |①---|
口口口口 |----|
口口口口 |②---|
口口口口 |----|
34
口口口口 |①---|
口①口口 |----|
口口口口 |----|
口口口口 |----|
35
口口口口 |①---|
口口①口 |----|
口口口口 |----|
口口口口 |----|
36
④③②① |①---|
口口口口 |②---|
口口口口 |③---|
口口口口 |④---|
37
口口口口 |①---|
①②③④ |②---|
口口口口 |③---|
口口口口 |④---|
38
口口口口 |①---|
口口口口 |②---|
④③②① |③---|
口口口口 |④---|
39
口口口口 |①---|
口口口口 |----|
口口口口 |②---|
①口②口 |----|
40
口口口口 |①---|
口口①口 |----|
口②口口 |②---|
口口口口 |----|
41
口口口口 |①---|
口口口口 |----|
口口①口 |②---|
口②口口 |----|
42
口口口口 |①---|
口口口口 |----|
口②口口 |②---|
口口①口 |----|
43
口②口口 |①---|
口口①口 |----|
口口口口 |②---|
口口口口 |----|
44
④③②① |①---|
口口口口 |②---|
口口口口 |③---|
口口口口 |④---|
45
口口口口 |①---|
①②③④ |②---|
口口口口 |③---|
口口口口 |④---|
46
口口口口 |①---|
口口口口 |②---|
④③②① |③---|
口口口口 |④---|
47
口口口口 |①---|
口口口口 |----|
口口口口 |②---|
①口②口 |----|
48
口口口口 |①---|
口口①口 |----|
口②口口 |②---|
口口口口 |----|
49
口口口口 |①---|
口口口口 |----|
口口①口 |②---|
口②口口 |----|
50
口口口口 |①---|
口口口口 |----|
口②口口 |②---|
口口①口 |----|
51
口②口口 |①---|
口口①口 |----|
口口口口 |②---|
口口口口 |----|
52
口②①口 |①---|
口口口口 |----|
口口口口 |②---|
口口口口 |----|
53
口②①口 |①---|
口口口口 |----|
口口口口 |②---|
口口口口 |----|
54
口口口口 |①---|
口口①口 |----|
口口口口 |----|
口口口口 |----|
55
口口口口 |①---|
口①口口 |----|
口口口口 |----|
口口口口 |----|
56
口口口口 |①---|
口口口口 |----|
口口①口 |----|
口口口口 |----|
57
口口口口 |①---|
口口口口 |----|
口①口口 |----|
口口口口 |----|
58
口口口口 |①---|
②口口② |----|
口口口口 |②---|
口口①口 |----|
59
口口口口 |①---|
口口口口 |----|
①口口① |----|
口口口口 |----|
60
口①①口 |①---|
口②②口 |----|
口口口口 |②---|
口口口口 |----|
61
口口口口 |①---|
口口口口 |----|
口①①口 |----|
口口口口 |----|
62
口口口口 |①---|
口①口口 |----|
口口口口 |----|
口口口口 |----|
63
口口口口 |①---|
口口口口 |----|
口口①口 |----|
口口口口 |----|
64
口口口口 |①---|
口口口口 |----|
口口口口 |----|
口①口口 |----|
65
口口口口 |①---|
口口口口 |----|
口口口口 |----|
口口①口 |----|
66
口口口口 |①---|
口②②口 |----|
口①口口 |②---|
口口口口 |----|

不確定度: 0

最終更新:2018年07月16日 23:02