Queen's Paradise
Nanako

ADVANCED

Level: 7
BPM: 157
Notes: 408

1
口口口口 |----|
口口口口 |----|
口口口口 |----|
口口口口 |----|
2
口口口口 |①---|
④③口④ |--②-|
口口②① |③---|
口①口口 |--④-|
3
①口②① |①---|
口口口口 |----|
口③口口 |②---|
口口口口 |③---|
4
口口口口 |①---|
口口③② |--②-|
④口口① |③---|
口口口口 |--④-|
5
口口口口 |①---|
口口口口 |----|
口口①口 |----|
口口口口 |----|
6
口口口口 |①---|
④③口④ |--②-|
口口②① |③---|
口①口口 |--④-|
7
①口②① |①---|
口口口口 |----|
口③口口 |②---|
口口口口 |③---|
8
口口口口 |①---|
③口③口 |--②-|
②口②① |③---|
口口口口 |----|
9
口③口③ |①--②|
口口口口 |--③-|
②口②口 |----|
口①口① |----|
10
口口口口 |①---|
口③口① |--②-|
④口②④ |③---|
口①口口 |--④-|
11
①②口① |①---|
口口口口 |----|
③口口口 |②---|
口口口口 |③---|
12
口口口口 |①---|
②③口口 |--②-|
④口①④ |③---|
口口③② |--④-|
13
口口口口 |①---|
口口口口 |----|
口①①口 |----|
口口口口 |----|
14
口口口口 |①---|
口③口① |--②-|
④口②④ |③---|
口①口口 |--④-|
15
①口②① |①---|
口口口口 |----|
口口口③ |②---|
口口口口 |③---|
16
③口③口 |①---|
口口口口 |--②-|
②①②口 |③---|
口口口口 |----|
17
口口③口 |①---|
口口口① |②---|
④口口口 |③---|
口②口口 |④---|
18
①口口口 |--①-|
口⑤⑦③ |②--③|
口口②口 |④-⑤-|
口④⑥口 |⑥-⑦-|
19
口口口① |--①-|
③⑦⑤口 |②--③|
口②口口 |④-⑤-|
口⑥④口 |⑥-⑦-|
20
口②口① |①---|
口口③口 |②---|
口口口② |③---|
④口口口 |--④-|
21
口③口口 |①---|
①口口口 |②-③-|
口②口③ |----|
口口①口 |----|
22
口④⑥口 |--①-|
口口②口 |②--③|
口⑤⑦③ |④-⑤-|
①口口口 |⑥-⑦-|
23
口⑥④口 |--①-|
口②口口 |②--③|
③⑦⑤口 |④-⑤-|
口口口① |⑥-⑦-|
24
口④口口 |①---|
④口口② |②---|
口口③口 |③---|
口②口① |④---|
25
①口②口 |①---|
口③口④ |②---|
②口口口 |③---|
口④口口 |④---|
26
口④③④ |①---|
②口口口 |--②-|
口口①口 |③---|
口口口口 |--④-|
27
口口口口 |①---|
口口口口 |----|
口①口① |----|
口②口口 |②---|
28
④口④③ |①---|
口②口口 |--②-|
⑤口⑤① |③---|
口口口口 |④-⑤-|
29
口口口口 |----|
口口口口 |----|
口口口口 |----|
①口口① |①---|
30
口口口口 |①---|
口①①口 |--②-|
②口口②
口口口口

口口口口
③④④③
口口口口 |③---|
口口口口 |--④-|
31
口①①口 |①---|
口口口口 |----|
口口口口
口口口口

口②②口
口口口口
口口口口 |----|
口口口口 |--②-|
32
口口口口 |①---|
②①①② |--②-|
口④④口 |③---|
③口口③ |--④-|
33
口①①口 |①---|
口口口口 |----|
口口口口 |----|
口口口口 |----|
34
口⑥④口 |--①-|
口②口③ |②--③|
③⑦⑤口 |④-⑤-|
口口⑥① |⑥-⑦-|
35
口④⑥口 |--①-|
口口②口 |②--③|
口⑤⑦③ |④-⑤-|
①口口口 |⑥-⑦-|
36
口口口④ |①---|
②口口口 |②---|
口③口口 |③---|
①口②口 |--④-|
37
口①口口 |①---|
③口②口 |②-③-|
口口口① |----|
口口③口 |----|
38
口口口① |--①-|
③⑦⑤口 |②--③|
口②口口 |④-⑤-|
口⑥④口 |⑥-⑦-|
39
①口口口 |--①-|
口⑤⑦③ |②--③|
口口②口 |④-⑤-|
口④⑥口 |⑥-⑦-|
40
①口②口 |①---|
口③口口 |②---|
②口口④ |③---|
口口④口 |④---|
41
口口④口 |①---|
口口口② |②---|
④口③口 |③---|
口②口① |④---|
42
口口口口 |①---|
口①口口 |--②-|
④口④② |③---|
口③口口 |--④-|
43
①口①口 |①---|
口口口口 |----|
口口口口
口口口口

口口②口
口口口口
口口口口 |----|
口口口口 |②---|
44
口口口口 |①---|
①⑥口⑥ |--②-|
口口②口 |③-④-|
③⑤④⑤ |⑤-⑥-|
45
口口口口 |----|
口口口口 |----|
口口口口 |----|
口口口口 |----|
46
口口口口 |①---|
③④④③ |--②-|
②①①② |③---|
口口口口 |--④-|
47
口①①口 |①---|
口②②口 |----|
口口口口 |----|
口口口口 |--②-|
48
⑤⑤⑤⑤ |①---|
④④④④ |--②-|
口②②口 |③---|
③①①③ |④-⑤-|
49
③口口③ |----|
②③③② |①---|
①②②① |②---|
口①①口 |③---|
50
口口口口 |①---|
口口③口 |--②-|
口④口② |③---|
口口①口 |--④-|
51
口⑦口口 |①-②-|
①⑥④口 |③-④-|
口⑤口口 |--⑤-|
③口②口 |⑥-⑦-|
52
④口口① |①---|
口⑤⑤口 |--②-|
口口口口 |③---|
③口口② |④-⑤-|
53
③口口口 |----|
口③口② |①---|
①口②口 |②---|
口①口口 |③---|
54
口②口① |①-②-|
③⑥⑤口 |③-④-|
口④口口 |⑤---|
口口口口 |--⑥-|
55
口②口① |①-②-|
口口⑤口 |③-④-|
口③⑥④ |--⑤-|
口口⑦口 |⑥-⑦-|
56
口口口口 |①---|
口口口口 |----|
②口口② |②---|
①口口① |----|
57
①①①① |①---|
口口口口 |----|
口口口口 |----|
口口口口 |----|
58
口口口口 |----|
口口口口 |----|
口口口口 |----|
口口口口 |----|
59
口②②口 |①---|
③口口① |--②-|
④口口④ |③---|
口①③口 |--④-|
60
①②口① |①---|
口口口口 |----|
③口口口 |②---|
口口口口 |③---|
61
口口口口 |①---|
②③口口 |--②-|
④口①④ |③---|
口口③② |--④-|
62
口口口口 |①---|
口口口口 |----|
口①①口 |----|
口口口口 |----|
63
口②②口 |①---|
③口口① |--②-|
④口口④ |③---|
口①③口 |--④-|
64
①口②① |①---|
口口口口 |----|
口口口③ |②---|
口口口口 |③---|
65
③口③口 |①---|
口口口口 |--②-|
②①②口 |③---|
口口口口 |----|
66
①口口口 |----|
口口口口 |----|
口口口口 |----|
口口口口 |--①-|
67
口⑥①口 |①---|
口②⑤④ |②-③-|
口口③口 |④-⑤-|
口口口口 |--⑥-|
68
口口口口 |--①-|
①④③口 |②-③-|
口②口口 |④---|
⑤口口口 |--⑤-|
69
口口口口 |①---|
口口③口 |②-③-|
口②⑤④ |④-⑤-|
口⑥①口 |--⑥-|
70
口⑤口口 |--①-|
口②口口 |②-③-|
①④③口 |④---|
口口口口 |--⑤-|
71
口口⑤口 |①---|
口②口① |②-③-|
口口口③ |--④-|
④④口口 |--⑤-|
72
口口口口 |①---|
①口②口 |②---|
口③③口 |③---|
口口口口 |----|
73
口②②口 |①---|
③口口① |--②-|
④口口④ |③---|
口①③口 |--④-|
74
①②②① |①---|
口口口口 |----|
口口口口 |②---|
口③③口 |③---|
75
③③③③ |①---|
②②②② |--②-|
口①①口 |③---|
口口口口 |----|


不确定度: 0

最終更新:2012年11月11日 16:41