ススメRunner!!
fourfolium

ADVANCED

Level: 5
BPM: 176
Notes: 323

1
口口口口 |----|
口口口口 |----|
口口口口 |----|
口口口口 |----|
2
口④④口 |①---|
②口口③ |----|
口①①口 |②-③-|
口口口口 |--④-|
3
①口口① |----|
口口口口 |----|
口口口口 |①---|
口口口口 |----|
4
口口口口 |①---|
口④④口 |----|
②口口③ |②-③-|
口①①口 |--④-|
5
口口口口 |----|
①口口① |----|
口口口口 |①---|
口口口口 |----|
6
口①口口 |①---|
口口②口 |②---|
③④⑤⑥ |③-④-|
口口口口 |⑤-⑥-|
7
①口口② |--①-|
口口口口 |--②-|
口口口口 |----|
口③口口 |③---|
8
口⑤④口 |①---|
口口③口 |②---|
口口②口 |③---|
口口①口 |④-⑤-|
9
口口口口 |----|
①口口口 |----|
口口口② |--①-|
③口口口 |②-③-|
10
④⑥⑤③ |①-②-|
口②①口 |③-④-|
口口⑦口 |⑤-⑥-|
⑧口口口 |⑦-⑧-|
11
口口口口 |--①-|
②口③口 |--②-|
①④口口 |--③-|
口口⑤口 |④-⑤-|
12
①口口② |①-②-|
③⑤口④ |③-④-|
口口⑥口 |⑤-⑥-|
口⑦口⑧ |⑦-⑧-|
13
口口口口 |--①-|
口口口② |--②-|
口口口① |----|
口口口口 |----|
14
口①口口 |①---|
口③②口 |--②-|
口口口口 |③---|
口⑤④口 |④-⑤-|
15
口口口口 |----|
口口口口 |①-②-|
口②①口 |----|
口口口③ |③---|
16
口⑤④口 |①---|
③口口① |②---|
口口口口 |③---|
②口口口 |④-⑤-|
17
口口口口 |①-②-|
⑤②①口 |③-④-|
口④③⑥ |--⑤-|
⑦口口口 |⑥-⑦-|
18
④口口③ |①-②-|
口②①口 |③---|
口口⑤口 |④---|
⑥口口口 |⑤-⑥-|
19
口口口口 |--①-|
②口③口 |--②-|
①④口口 |--③-|
口口⑤口 |④-⑤-|
20
①口口② |①-②-|
③⑤口④ |③-④-|
口口⑥口 |⑤-⑥-|
口⑦口⑧ |⑦-⑧-|
21
口口口口 |--①-|
口口口② |--②-|
口口口① |----|
口口口口 |----|
22
口①口口 |①---|
口③②口 |--②-|
口口口口 |③---|
口⑤④口 |④-⑤-|
23
口口口口 |----|
口口口口 |①-②-|
口②①口 |----|
口口口③ |③---|
24
口⑤④口 |①---|
③口口① |②---|
口口口口 |③---|
②口口口 |④-⑤-|
25
口口口口 |①-②-|
口②①口 |③-④-|
口④③口 |----|
口口口口 |----|
26
①口口② |----|
口③④口 |①---|
口口口口 |②---|
口口口口 |③-④-|
27
口口口口 |----|
口口口口 |----|
口口口口 |----|
口口口口 |----|
28
口口口口 |----|
口口口口 |①---|
口④③口 |②---|
②口口① |③-④-|
29
口口口口 |----|
口口口口 |----|
口口口口 |----|
口口口口 |----|
30
口口口口 |----|
①②③① |①---|
口④⑤口 |②-③-|
口口口口 |④-⑤-|
31
①口口口 |----|
②口口口 |①---|
③口口口 |②---|
口口口口 |③---|
32
口口口口 |①---|
口③②口 |--②-|
口口④口 |③---|
①口口口 |--④-|
33
口口口口 |①---|
口口口⑥ |--②-|
⑤①口④ |③-④-|
③口口② |⑤-⑥-|
34
口①②口 |----|
口口口口 |----|
口口口口 |----|
口口口口 |①-②-|
35
口口口口 |----|
口①口口 |----|
口口②口 |--①-|
口③口口 |②-③-|
36
②②③③ |①---|
口口口口 |②---|
口口口口 |③---|
④④①① |④---|
37
③③口口 |①-②-|
口②①④ |--③-|
⑤口口口 |--④-|
口口口⑥ |⑤-⑥-|
38
口⑦⑧口 |①-②-|
口⑤⑥口 |③-④-|
口③④口 |⑤-⑥-|
口①②口 |⑦-⑧-|
39
①口口② |①-②-|
口④口口 |----|
口口⑤口 |③---|
口③③口 |④-⑤-|
40
口口④口 |①---|
口⑤口口 |②-③-|
口①口口 |----|
③口口② |④-⑤-|
41
口口口口 |①---|
④口口口 |②-③-|
②口①③ |----|
口口口口 |--④-|
42
口③④口 |①---|
口⑤⑥① |②---|
口口口口 |③-④-|
口②②口 |⑤-⑥-|
43
③口口③ |①-②-|
口口口口 |--③-|
口①②口 |----|
口口口口 |----|
44
②②③③ |①---|
口口口口 |②---|
口口口口 |③---|
④④①① |④---|
45
③③口口 |①-②-|
口②①④ |--③-|
⑤口口口 |--④-|
口口口⑥ |⑤-⑥-|
46
口⑦⑧口 |①-②-|
口⑤⑥口 |③-④-|
口③④口 |⑤-⑥-|
口①②口 |⑦-⑧-|
47
①口口② |①-②-|
口④口口 |----|
口口⑤口 |③---|
口③③口 |④-⑤-|
48
口口④口 |①---|
口⑤口口 |②-③-|
口①口口 |----|
③口口② |④-⑤-|
49
口口口口 |①---|
④口口口 |②-③-|
②口①③ |----|
口口口口 |--④-|
50
口③④口 |①---|
口⑤⑥① |②---|
口口口口 |③-④-|
口②②口 |⑤-⑥-|
51
③口口③ |①-②-|
口口口口 |--③-|
口①②口 |----|
④口口④ |④---|
52
口口口口 |①---|
口①①口 |--②-|
②口口③ |③---|
口④口口 |--④-|
53
口口口口 |①-②-|
口②①口 |③-④-|
口④③口 |⑤---|
口口⑤口 |----|
54
①①⑥⑥ |①-②-|
口口②② |③---|
③③口口 |④---|
⑤④④口 |⑤-⑥-|
55
⑤口口口 |--①-|
口①口④ |②---|
口口②口 |③-④-|
口③口口 |⑤---|
56
口口①① |①-②-|
②②口口 |③---|
口口③③
口口口口

口口口⑦
口口口口
口⑥口口 |④-⑤-|
口④⑤口 |⑥-⑦-|
57
①口口口 |--①-|
口⑤②口 |②---|
口口口④ |③-④-|
口③口口 |⑤---|
58
①④④① |①---|
②口口③ |----|
口口口口 |②-③-|
口口口口 |--④-|
59
①口口① |----|
口口口口 |----|
口口口口 |①---|
口口口口 |----|
60
口口口口 |①---|
口④④口 |----|
②口口③ |②-③-|
口①①口 |--④-|
61
口口口口 |----|
①口口① |----|
口口口口 |①---|
口口口口 |----|
62
口①口口 |①---|
口口②口 |②---|
③④⑤⑥ |③-④-|
口口口口 |⑤-⑥-|
63
①口口② |--①-|
口口口口 |--②-|
口口口口 |----|
口③口口 |③---|
64
口⑤④口 |①---|
口口③口 |②---|
口口②口 |③---|
口口①口 |④-⑤-|
65
口口口口 |----|
口口口口 |----|
口口口口 |----|
口口口口 |----|
66
②②②② |①---|
口口口口 |----|
口口口口 |②---|
口①①口 |----|

不確定度: 0

最終更新:2018年07月16日 23:01