シャルル
バルーン

BASIC

Level: 2
BPM: 145
Notes: 156

1
口口口口 |----|
口口口口 |----|
口口口口 |----|
口口口口 |----|
2
口口口口 |----|
口口口口 |----|
口口口口 |----|
口口口口 |----|
3
口口口口 |①---|
口口口口 |----|
口口口口 |②---|
口②①口 |----|
4
口口口口 |①---|
口口口口 |----|
口②①口 |②---|
口口口口 |----|
5
口口口口 |①---|
口②①口 |----|
口口口口 |②---|
口口口口 |----|
6
口①①口 |①---|
口口口口 |----|
口口口口 |----|
口口口口 |----|
7
口②①口 |①---|
口口口口 |----|
口口口口 |②---|
口口口口 |----|
8
口口口口 |①---|
口②①口 |----|
口口口口 |②---|
口口口口 |----|
9
口口口口 |①---|
口口口口 |----|
口①①口 |----|
口口口口 |----|
10
口口口口 |----|
口②②口 |----|
口①①口 |①---|
口口口口 |②---|
11
口口②① |①---|
口口口口 |----|
口口口口 |②---|
口口口口 |----|
12
②①口口 |①---|
口口口口 |----|
口口口口 |②---|
口口口口 |----|
13
口口口口 |①---|
口口②① |----|
口口口口 |②---|
口口口口 |----|
14
口口口口 |①---|
②①口口 |----|
口口口口 |②---|
口口口口 |----|
15
①②口口 |①---|
口口口口 |----|
口口口口 |②---|
口口口口 |----|
16
口口①② |①---|
口口口口 |----|
口口口口 |②---|
口口口口 |----|
17
口口口口 |①---|
①②口口 |----|
口口口口 |②---|
口口口口 |----|
18
口口口口 |①---|
口口①② |----|
口口口口 |②---|
口口口口 |----|
19
口口口口 |①---|
口①②口 |----|
口口口口 |②---|
口口口口 |----|
20
口口口① |①---|
口口口② |②---|
口口口口 |----|
口口口口 |----|
21
口口口口 |①---|
口②①口 |----|
口口口口 |②---|
口口口口 |----|
22
①口口口 |①---|
②口口口 |②---|
口口口口 |----|
口口口口 |----|
23
口②①口 |①---|
口口口口 |----|
口口口口 |②---|
口口口口 |----|
24
口口口口 |①---|
口②①口 |----|
口口口口 |②---|
口口口口 |----|
25
口口口口 |①---|
口口口口 |----|
口①①口 |----|
口口口口 |----|
26
口口口口 |----|
口口口口 |----|
口口口口 |----|
口口口口 |----|
27
口口口口 |①---|
②口口① |----|
口口口口 |②---|
口口口口 |----|
28
口口口口 |①---|
口口口口 |----|
②口口① |②---|
口口口口 |----|
29
口口口口 |①---|
口口口口 |----|
口口口口 |②---|
②口口① |----|
30
口口口口 |①---|
口①①口 |②---|
口②②口 |③---|
口③③口 |----|
31
口口口口 |①---|
①口口② |----|
口口口口 |②---|
口口口口 |----|
32
口口口口 |①---|
口口口口 |----|
①口口② |②---|
口口口口 |----|
33
口口口口 |①---|
口口口口 |----|
口口口口 |②---|
①口口② |----|
34
口口口口 |①---|
口口口口 |----|
口①①口 |----|
口口口口 |----|
35
口口口口 |①---|
④③②① |②---|
口口口口 |③---|
口口口口 |④---|
36
①口口② |①---|
口口口口 |----|
口口口口 |②---|
口口口口 |----|
37
口口口口 |①---|
①口口② |----|
口口口口 |②---|
口口口口 |----|
38
口口口口 |①---|
口口口口 |②---|
①②③④ |③---|
口口口口 |④---|
39
口口口口 |①---|
②口口① |----|
口口口口 |②---|
口口口口 |----|
40
口①①口 |①---|
口②②口 |②---|
口③③口 |③---|
口口口口 |----|
41
口口口口 |①---|
②口口① |----|
口口口口 |②---|
口口口口 |----|
42
口口口口 |①---|
口口口口 |----|
②口口① |②---|
口口口口 |----|
43
口口口口 |①---|
①②③④ |②---|
口口口口 |③---|
口口口口 |④---|
44
②口口① |①---|
口口口口 |----|
口口口口 |②---|
口口口口 |----|
45
口口口口 |①---|
②口口① |----|
口口口口 |②---|
口口口口 |----|
46
口口口口 |①---|
口口口口 |②---|
④③②① |③---|
口口口口 |④---|
47
口口口口 |①---|
①口口② |----|
口口口口 |②---|
口口口口 |----|
48
口①①口 |①---|
口②②口 |②---|
口③③口 |③---|
口口口口 |----|
49
口口口口 |①---|
①口口② |----|
口口口口 |②---|
口口口口 |----|
50
口口口口 |①---|
口口口口 |----|
①口口② |②---|
口口口口 |----|
51
口口口口 |①---|
④③②① |②---|
口口口口 |③---|
口口口口 |④---|
52
口口口口 |①---|
口口口口 |②---|
①②③④ |③---|
口口口口 |④---|
53
口口口口 |①---|
②口口① |----|
口口口口 |②---|
口口口口 |----|
54
口口口口 |①---|
口口口口 |----|
②口口① |②---|
口口口口 |----|
55
口口口口 |①---|
①②③④ |②---|
口口口口 |③---|
口口口口 |④---|
56
口口口口 |①---|
口口口口 |②---|
④③②① |③---|
口口口口 |④---|
57
口口口口 |①---|
①口口② |----|
口口口口 |②---|
口口口口 |----|
58
口口口口 |①---|
口口口口 |----|
①口口② |②---|
口口口口 |----|
59
口口口口 |①---|
①口口② |----|
口口口口 |②---|
口口口口 |----|
60
口③③口 |①---|
口②②口 |②---|
口①①口 |③---|
口口口口 |----|
61
①口口② |①---|
口口口口 |----|
口口口口 |②---|
口口口口 |----|
62
口①①口 |①---|
口②②口 |②---|
口③③口 |③---|
口口口口 |----|

不確定度: 0

最終更新:2018年07月16日 23:01