シャルル
バルーン

ADVANCED

Level: 5
BPM: 145
Notes: 339

1
口口口口 |----|
口口口口 |----|
口口口口 |----|
口口口口 |----|
2
口①口口 |----|
口口口口 |----|
口口口口 |----|
口口口口 |①---|
3
口口口口 |①---|
口②①口 |②---|
口④③口 |③---|
口口口口 |④---|
4
口口口口 |①---|
①口口① |----|
口口口口 |②---|
②口口② |----|
5
口口口口 |①---|
口①②口 |②---|
口③④口 |③---|
口口口口 |④---|
6
口口口口 |①---|
①口口① |----|
口口口口 |②---|
②口口② |----|
7
②口口① |①---|
④口口③ |②---|
口口口口 |③---|
口口口口 |④---|
8
口口口口 |①---|
③④⑤口 |②---|
口①①口 |--③-|
口②②口 |④-⑤-|
9
口口口口 |①---|
口口口① |----|
②口口② |②---|
口口口口 |----|
10
口④③口 |①---|
②口口① |②---|
口②①口 |③---|
口口口口 |④---|
11
口口⑤① |①---|
口④口口 |②---|
③口口口 |③-④-|
口口口② |⑤---|
12
①⑤口口 |①---|
口口④口 |②---|
口口口③ |③-④-|
②口口口 |⑤---|
13
口口⑤① |①---|
口④口口 |②---|
③口口口 |③-④-|
口口口② |⑤---|
14
①⑤口口 |①---|
口口④口 |②---|
口口口③ |③-④-|
②口口口 |⑤---|
15
口口⑤① |①---|
口④口口 |②---|
③口口口 |③-④-|
口口口② |⑤---|
16
①⑤口口 |①---|
口口④口 |②---|
口口口③ |③-④-|
②口口口 |⑤---|
17
口口⑤① |①---|
口④口口 |②---|
③口口口 |③-④-|
口口口② |⑤---|
18
①⑤口④ |①---|
口③③口 |②---|
口口口口 |③---|
②口口口 |④-⑤-|
19
口口口口 |①-②-|
口口③口 |③---|
口②口①
口口口口

口口口口
④口口⑤
④口口⑤ |④---|
口口口口 |⑤---|
20
口口口口 |①---|
口①②口 |②---|
③④⑤⑥ |③-④-|
口①②口 |⑤-⑥-|
21
①口口口 |--①-|
②④③口 |②---|
口④③口 |③---|
口口口口 |④---|
22
口①①口 |①---|
口口口口 |②---|
口口口口 |----|
口②②口 |----|
23
③口口① |①---|
口口口口 |②---|
口②④口 |③---|
口口口口 |④---|
24
口口口口 |①---|
①口口① |②---|
②口口②
口口口口

③口口③
④口口④
口口口口 |--③-|
口口口口 |④---|
25
口口口口 |①---|
口口口口 |----|
口②②口 |②---|
①口口① |----|
26
口口口② |①---|
口①①口 |--②-|
口口口口
口口口口

口④口口
口⑤口③
口口口口 |③---|
口口口口 |④-⑤-|
27
口口口口 |①---|
②口①③ |----|
口②口① |②---|
口口口口 |--③-|
28
口③口④ |①---|
②口①⑤ |②---|
口口口口 |③-④-|
口口口口 |⑤---|
29
口口口口 |--①-|
口口③口 |②---|
①②口口 |③---|
口口④口 |④---|
30
口口口⑥ |①---|
①口⑤② |②---|
①④口② |③-④-|
口③③口 |⑤-⑥-|
31
口口口口 |①---|
③①口② |----|
①口②口 |②---|
口口口口 |--③-|
32
④口③口 |①---|
⑤①口② |②---|
口口口口 |③-④-|
口口口口 |⑤---|
33
⑦口口⑦ |--①-|
口⑥⑤口 |②-③-|
口④③口 |④-⑤-|
口②①口 |⑥-⑦-|
34
口口口口 |----|
口口口① |----|
口口口② |①-②-|
口口口③ |③---|
35
②口口④ |①---|
口③①口 |②---|
口①③口 |③---|
口口口口 |④---|
36
口⑥⑥口 |①-②-|
①②③④ |③-④-|
口⑤⑤口 |⑤---|
口口口口 |⑥---|
37
口口③③ |--①-|
①②口口 |②---|
口口口口 |③---|
口口④④ |④---|
38
①②③④ |①---|
②口口口 |②---|
③口口口 |③---|
④口口口 |④---|
39
口口口口 |①---|
②③①口 |--②-|
口①③④ |③---|
口口口口 |--④-|
40
口口②口 |①---|
口③①口 |②-③-|
口①④口 |④---|
口口口口 |----|
41
口口口口 |--①-|
口⑤⑤口 |②-③-|
①②③④ |④---|
口口口口 |⑤---|
42
口口口口 |①---|
口口口② |②---|
口口口②
口①①口

口口口口
③口口口
③口口口 |③---|
口④④口 |④---|
43
②口口④ |①---|
口③①口 |②---|
口①③口 |③---|
口口口口 |④---|
44
口①口口 |①-②-|
⑤口②⑤ |③-④-|
口③口口 |⑤---|
⑥口④⑥ |⑥---|
45
口口③③ |--①-|
①②口口 |②---|
口口口口 |③---|
口口④④ |④---|
46
①②③④ |①---|
②口口口 |②---|
③口口口 |③---|
④口口口 |④---|
47
口口口口 |①---|
口①③② |--②-|
④③①口 |③---|
口口口口 |--④-|
48
口②口口 |①---|
口①③口 |②-③-|
口④①口 |④---|
口口口口 |----|
49
口口口① |①---|
口口②口 |②---|
口③口口 |③---|
④口口口 |④---|
50
口口口口 |①---|
口①①③ |②---|
口口口④ |③-④-|
口②②⑤ |⑤---|
51
②口口④ |①---|
口口口口 |②---|
口③①口 |③---|
口①③口 |④---|
52
口⑥⑥口 |①-②-|
①②③④ |③-④-|
口⑤⑤口 |⑤---|
口口口口 |⑥---|
53
④口口② |①---|
口口口口 |②---|
口口口口 |③---|
③口口① |④---|
54
口④②口 |①---|
口口口口 |②---|
口口口口 |③---|
口③①口 |④---|
55
④口口② |①---|
口口口口 |②---|
口①③口 |③---|
口③①口 |④---|
56
口⑥⑥口 |①-②-|
④③②① |③-④-|
口⑤⑤口 |⑤---|
口口口口 |⑥---|
57
②口口④ |①---|
口口口口 |②---|
口口口口 |③---|
①口口③ |④---|
58
口②④口 |①---|
口口口口 |②---|
口口口口 |③---|
口①③口 |④---|
59
口口口口 |①---|
①口口② |----|
①口口② |②---|
口口口口 |----|
60
⑤口④口 |①-②-|
⑤③口口 |③-④-|
口口②口 |⑤---|
口①口口 |----|
61
口口口口 |--①-|
④口①④ |②-③-|
口②口口 |④---|
⑤口③⑤ |⑤---|
62
口③③口 |①---|
口③③口 |②---|
①口口② |③---|
口①②口 |----|

不確定度: 0

最終更新:2018年07月16日 23:01