STEP by STEP UP↑↑↑↑
fourfolium

BASIC

Level: 3
BPM: 175
Notes: 116

1
口口口口 |----|
口口口口 |----|
口口口口 |----|
口口口口 |----|
2
口口口口 |----|
口口口口 |----|
口口口口 |----|
口口口口 |----|
3
口口口口 |①---|
口口口① |----|
口②口口 |----|
口口口口 |--②-|
4
口口口口 |----|
口①口口 |--①-|
口口口口 |----|
口口口口 |----|
5
口口口口 |①---|
①口口口 |----|
口口②口 |----|
口口口口 |--②-|
6
口口口口 |----|
口口①口 |--①-|
口口口口 |----|
口口口口 |----|
7
口口口① |①---|
口口口口 |----|
口口口口 |----|
口口口口 |----|
8
①口口口 |①---|
口口口口 |----|
口口口口 |----|
口口口口 |----|
9
口口口口 |①---|
口口口口 |----|
口①①口 |----|
口口口口 |----|
10
③口口③ |①---|
②口口② |----|
①口口① |②---|
口口口口 |--③-|
11
口口口口 |----|
口口口口 |----|
口口口口 |----|
口口口口 |----|
12
口口口口 |----|
口口口口 |----|
口口口口 |----|
口口口口 |----|
13
口口口口 |①---|
口口口① |----|
口口口口 |----|
口口口口 |----|
14
口口口口 |①---|
口口①口 |----|
口口口口 |----|
口口口口 |----|
15
口口口口 |①---|
口口口口 |----|
①口口口 |----|
口口口口 |----|
16
口口口口 |①---|
口口口口 |----|
口①口口 |----|
口口口口 |----|
17
口口口口 |①---|
口口口口 |----|
口口口口 |----|
口口口① |----|
18
口口口口 |①---|
口口口口 |----|
口口口口 |----|
口口①口 |----|
19
口口口口 |①---|
口口口口 |----|
口①①口 |----|
口口口口 |----|
20
口口口口 |①---|
口②②口 |②---|
口①①口 |----|
口口口口 |----|
21
口口口口 |①---|
口口口① |----|
口口口口 |----|
口口口口 |----|
22
口口口① |①---|
口口口口 |----|
口口口口 |----|
口口口口 |----|
23
口口口口 |①---|
①口口口 |----|
口口口口 |----|
口口口口 |----|
24
①口口口 |①---|
口口口口 |----|
口口口口 |----|
口口口口 |----|
25
口口口口 |①---|
口口①口 |----|
口口口口 |----|
口口口口 |----|
26
口口①口 |①---|
口口口口 |----|
口口口口 |----|
口口口口 |----|
27
口口口口 |①---|
口①①口 |----|
口口口口 |----|
口口口口 |----|
28
②口口② |①---|
①口口① |----|
口口口口 |②---|
口口口口 |----|
29
口口①口 |①---|
口口口口 |----|
口口口口 |----|
口口口口 |----|
30
口①口口 |①---|
口口口口 |----|
口口口口 |----|
口口口口 |----|
31
口口口口 |①---|
口口①口 |----|
口口口口 |----|
口口口口 |----|
32
口口口口 |①---|
口①口口 |----|
口口口口 |----|
口口口口 |----|
33
口口口口 |①---|
口口口口 |----|
口口①口 |----|
口口口口 |----|
34
口口口口 |①---|
口口口口 |----|
口①口口 |----|
口口口口 |----|
35
口口口口 |①---|
①②口口 |----|
口口口口 |②---|
口口口口 |----|
36
口口口口 |①---|
口口①② |----|
口口口口 |②---|
口口口口 |----|
37
①口口口 |①---|
口口口口 |----|
口口口口 |----|
口口口口 |----|
38
口口①口 |①---|
口口口口 |----|
口口口口 |----|
口口口口 |----|
39
口口口口 |①---|
①口口口 |----|
口口口口 |----|
口口口口 |----|
40
口口口口 |①---|
口口①口 |----|
口口口口 |----|
口口口口 |----|
41
口口口口 |①---|
口口口口 |----|
①②口口 |②---|
口口口口 |----|
42
口口口口 |①---|
口口口口 |----|
口口①② |②---|
口口口口 |----|
43
口口口口 |①---|
口②②口 |----|
口①①口 |②---|
口口口口 |----|
44
口①①口 |①---|
口口口口 |----|
口口口口 |----|
口口口口 |----|
45
口口口口 |①---|
口口口① |----|
③口②口 |②---|
口口口口 |--③-|
46
口②②口 |--①-|
①口口口 |--②-|
口口口口 |----|
口口口口 |----|
47
口口口口 |①---|
①口口口 |----|
口②口③ |②---|
口口口口 |--③-|
48
口②②口 |--①-|
口口口① |--②-|
口口口口 |----|
口口口口 |----|
49
①口口口 |①---|
口口口口 |----|
口口口口 |----|
口口口口 |----|
50
口口口① |①---|
口口口口 |----|
口口口口 |----|
口口口口 |----|
51
口口口口 |①---|
①②③④ |②---|
口口口口 |③---|
口口口口 |④---|
52
口①①口 |----|
口口口口 |①---|
口口口口 |----|
口口口口 |----|
53
口口口口 |①---|
口口口① |----|
③口②口 |②---|
口口口口 |--③-|
54
口②②口 |--①-|
①口口口 |--②-|
口口口口 |----|
口口口口 |----|
55
口口口口 |①---|
①口口口 |----|
口②口③ |②---|
口口口口 |--③-|
56
口②②口 |--①-|
口口口① |--②-|
口口口口 |----|
口口口口 |----|
57
②口口① |①---|
口口口口 |----|
口口口口 |②---|
口口口口 |----|
58
口口口口 |①---|
口②①口 |----|
口口口口 |②---|
口口口口 |----|
59
口口口口 |①---|
口口口① |----|
口口口① |----|
口口口口 |----|
60
口口口口 |①---|
①口口口 |----|
①②②口 |②---|
口口口口 |----|
61
口口口口 |①---|
口口口口 |----|
口口口口 |----|
口①①口 |----|
62
③口口③ |①---|
②口口② |----|
①口口① |②---|
口口口口 |--③-|
63
口口口口 |----|
口口口口 |----|
口口口口 |----|
口口口口 |----|
64
口口口口 |----|
口口口口 |----|
口口口口 |----|
口口口口 |----|
65
口口口口 |①---|
口①①口 |----|
口口口口 |----|
口口口口 |----|

不確定度: 0

最終更新:2018年07月16日 22:59