Morning Glory
(K)NoW_NAME

BASIC

Level: 3
BPM: 220
Notes: 127

1
口口口口 |----|
口口口口 |----|
口口口口 |----|
口口口口 |----|
2
口口口口 |----|
口口口口 |----|
口口口口 |----|
口口口口 |----|
3
口口口口 |----|
口口口口 |----|
口口口口 |----|
口口口口 |----|
4
口口口口 |①---|
口口口口 |----|
口口口口 |----|
口①①口 |----|
5
口口口口 |①---|
口口口口 |----|
口①①口 |----|
口口口口 |----|
6
口口口口 |①---|
口①①口 |----|
口口口口 |----|
口口口口 |----|
7
口①①口 |①---|
口口口口 |----|
口口口口 |----|
口口口口 |----|
8
①口口① |①---|
口口口口 |----|
口口口口 |----|
口口口口 |----|
9
口口口口 |①---|
①口口① |----|
口口口口 |----|
口口口口 |----|
10
口口口口 |①---|
口口口口 |----|
①口口① |----|
口口口口 |----|
11
口口口口 |①---|
口口口口 |----|
口口口口 |----|
①口口① |----|
12
口口口口 |①---|
口口口口 |----|
口口②口 |②---|
口①口口 |----|
13
口口口口 |①---|
口口②① |----|
口口口口 |②---|
口口口口 |----|
14
口口口口 |①---|
口①口口 |----|
口口口口 |----|
口口口口 |----|
15
口口口口 |①---|
口口①口 |----|
口②口口 |②---|
口口口口 |----|
16
口口口口 |①---|
口口口口 |----|
口②口口 |②---|
口口①口 |----|
17
口口口口 |①---|
①②口口 |----|
口口口口 |②---|
口口口口 |----|
18
口口口口 |①---|
口口①口 |----|
口口口口 |----|
口口口口 |----|
19
口①口口 |①---|
口口②口 |----|
口口口口 |②---|
口口口口 |----|
20
口口口口 |①---|
口口口口 |----|
口①口口 |----|
口口口口 |----|
21
口口口口 |----|
口口口口 |----|
口口口口 |----|
口口口口 |----|
22
口口口口 |①---|
口口①口 |----|
口口口口 |----|
口口口口 |----|
23
口口口口 |①---|
口①口口 |----|
口口口口 |----|
口口口口 |----|
24
口口口口 |----|
口口口口 |----|
口口口口 |----|
口口口口 |----|
25
口口口口 |----|
口口口口 |----|
口口口口 |----|
口口口口 |----|
26
②口口口 |①---|
口口①口 |----|
口口口口 |②---|
口口口口 |----|
27
口口口① |①---|
口口口口 |----|
口口口口 |----|
口口口口 |----|
28
口口口① |----|
口口口口 |----|
口口口口 |①---|
口口口口 |----|
29
①口口口 |①---|
口口口口 |----|
口口口口 |----|
口口口口 |----|
30
口口②① |①---|
口口口口 |----|
口口口口 |②---|
口口口口 |----|
31
口①口口 |①---|
口口口口 |----|
口口口口 |----|
口口口口 |----|
32
口口口口 |①---|
口口①口 |----|
口②口口 |②---|
口口口口 |----|
33
口口口口 |①---|
口口口口 |----|
口口口口 |----|
口口①口 |----|
34
口口口口 |①---|
口口口口 |----|
②口口口 |②---|
①口口口 |----|
35
②口口口 |①---|
①口口口 |----|
口口口口 |②---|
口口口口 |----|
36
口①口口 |①---|
口口口口 |----|
口口口口 |----|
口口口口 |----|
37
口口口口 |----|
口口口口 |----|
口口口口 |----|
口口口口 |----|
38
口口口① |①---|
口口②口 |----|
口口口口 |②---|
口口口口 |----|
39
口口口口 |①---|
口口口口 |----|
口①口口 |----|
口口口口 |----|
40
①口口口 |①---|
口②口口 |----|
口口口口 |②---|
口口口口 |----|
41
口口口口 |①---|
口口口口 |----|
口口①口 |----|
口口口口 |----|
42
口口口口 |①---|
口口口口 |----|
口口口口 |----|
口①口口 |----|
43
口口口口 |①---|
口口口① |----|
口口口口 |----|
口口口口 |----|
44
口口口口 |①---|
口口口口 |----|
口口口口 |----|
口口①口 |----|
45
口口口口 |①---|
①口口口 |----|
口口口口 |----|
口口口口 |----|
46
口口①① |①---|
②②口口 |----|
口口口口 |②---|
口口口口 |----|
47
口口口口 |①---|
口口口口 |----|
口口①① |②---|
②②口口 |----|
48
口口口口 |①---|
口口口口 |----|
口口口口 |----|
口口①① |----|
49
口口口口 |----|
口口口口 |----|
口口口口 |①---|
口①口口 |----|
50
口口口口 |①---|
②口口② |----|
①口口① |②---|
口口口口 |----|
51
①②②① |①---|
口口口口 |----|
口口口口 |②---|
口口口口 |----|
52
口口口口 |①---|
口①①口 |----|
口口口口 |----|
口口口口 |----|
53
口口口口 |①---|
口口口口 |----|
口口②① |②---|
口口口口 |----|
54
口口口口 |①---|
口口口口 |----|
口①口口 |----|
口口口口 |----|
55
口口口口 |①---|
口口口口 |----|
口口口口 |----|
口口①口 |----|
56
口口口口 |----|
口口口口 |----|
口口口口 |①---|
①口口口 |----|
57
口口口口 |①---|
口口②口 |----|
口①口口 |②---|
口口口口 |----|
58
口口口① |①---|
口口口口 |----|
口口口口 |----|
口口口口 |----|
59
口口口口 |①---|
口①口口 |----|
口口口口 |----|
口口口口 |----|
60
口口口口 |①---|
②口口② |----|
①口口① |②---|
口口口口 |----|
61
①②②① |①---|
口口口口 |----|
口口口口 |②---|
口口口口 |----|
62
口口口口 |①---|
口①①口 |----|
口口口口 |----|
口口口口 |----|
63
口口口口 |①---|
口口口口 |----|
①②口口 |②---|
口口口口 |----|
64
口口口口 |①---|
口口口口 |----|
口口①口 |----|
口口口口 |----|
65
口口口口 |①---|
口口口口 |----|
口口口口 |----|
口①口口 |----|
66
口口口口 |----|
口口口口 |----|
口口口口 |----|
口口口口 |----|
67
口口口口 |①---|
口口①① |----|
口口口口 |----|
口口口口 |----|
68
口口口口 |----|
口口口口 |----|
口口口口 |----|
口口口口 |----|
69
口口口口 |①---|
①口口口 |----|
口②口口 |②---|
口口口口 |----|
70
口口口口 |①---|
口口口口 |----|
口口口口 |----|
口口①口 |----|
71
口口口口 |①---|
口口口口 |----|
口①口口 |----|
口口口口 |----|
72
口口口口 |①---|
口口①口 |----|
口口口口 |----|
口口口口 |----|
73
口口口口 |①---|
①口口口 |----|
口②口口 |②---|
口口口口 |----|
74
口口口口 |①---|
口口口口 |----|
口口口口 |----|
口口①口 |----|
75
口口口口 |①---|
口口口口 |----|
口①①口 |----|
口口口口 |----|
76
口口口口 |①---|
口①①口 |----|
口口口口 |----|
口口口口 |----|
77
口①①口 |①---|
口口口口 |----|
口口口口 |----|
口口口口 |----|
78
①口口① |①---|
口口口口 |----|
口口口口 |----|
口口口口 |----|
79
口口口口 |----|
口口口口 |----|
口口口口 |----|
口口口口 |----|
80
口①口口 |①---|
口口②口 |②---|
口③口口 |③---|
口口④口 |④---|
81
口口口口 |----|
①口口① |----|
口口口口 |①---|
口口口口 |----|

不確定度: 0

最終更新:2018年07月16日 22:58