Morning Glory
(K)NoW_NAME

ADVANCED

Level: 6
BPM: 220
Notes: 289

1
口口口口 |------|
口口口口 |------|
口口口口 |------|
口口口口 |------|
2
口口口口 |------|
口口口口 |------|
口口口口 |------|
口口口口 |------|
3
口口口口 |------|
口口口口 |------|
口口口口 |------|
口口口口 |------|
4
口口口口 |①-----|
口①①口 |------|
口口口② |------|
口口口口 |②-----|
5
口口口口 |①-----|
口口口② |------|
①口口口 |------|
口口口口 |②-----|
6
口口口口 |①-----|
①口口口 |------|
口口口口 |------|
口口口口 |------|
7
口①①口 |①-----|
口口口口 |------|
口口口口 |②-----|
口②②口 |------|
8
口口口口 |①-----|
口①①口 |------|
口口口② |------|
口口口口 |②-----|
9
口口口口 |①-----|
口口口② |------|
①口口口 |------|
口口口口 |②-----|
10
口口口口 |①-----|
①口口口 |------|
口口口口 |------|
口口口口 |------|
11
口①①口 |①-----|
口口口口 |------|
口口口口 |②-----|
口②②口 |------|
12
口口⑤口 |----①-|
口③④口 |②---③-|
⑥①②口 |④-----|
口口口口 |⑤---⑥-|
13
④口口⑤ |①---②-|
②口口③ |③---④-|
口⑥口① |⑤-----|
口口口口 |⑥-----|
14
②口①口 |①-----|
口口口口 |------|
口口口口 |------|
口口口口 |②-----|
15
口口口口 |①-----|
口①口口 |②-----|
口口②口 |③-----|
口口口③ |------|
16
口口⑤口 |----①-|
口③④口 |②---③-|
⑥①②口 |④-----|
口口口口 |⑤---⑥-|
17
④口口⑤ |①---②-|
②口口③ |③---④-|
口口口① |⑤-----|
口⑥口口 |⑥-----|
18
②口①口 |①-----|
口口口口 |------|
口口口口 |------|
口口口口 |②-----|
19
口①②③ |①-----|
口口口口 |②-----|
口口口口 |③-----|
口④口口 |④-----|
20
口①口口 |------|
口口口口 |①-----|
口口口口 |------|
口口口口 |------|
21
口口口① |------|
口口口口 |------|
口口口口 |------|
口口口口 |①-----|
22
口口口口 |①-----|
①口④口 |②-----|
口口口② |③-----|
③口口口 |④-----|
23
口口口口 |------|
口口口口 |------|
口口口口 |------|
口口口口 |------|
24
口口口口 |------|
口口口口 |------|
口口口口 |------|
口①口口 |①-----|
25
口口口口 |①-----|
口②口口 |②-----|
口①口口 |------|
口口口口 |------|
26
口口口② |①-----|
口口口口 |------|
口①①口 |②-----|
口口口口 |------|
27
①口口口 |①-----|
口口口口 |------|
口口口口 |------|
口口口口 |------|
28
口②口口 |①-----|
口口口口 |------|
口①①口 |②-----|
口口口口 |------|
29
口口①口 |①-----|
口口口口 |------|
口口口口 |------|
②口口口 |②-----|
30
口①口口 |①-----|
口④口口 |----②-|
口②③口 |③-----|
口口口口 |----④-|
31
口口口② |①-----|
口口①口 |------|
口口口口 |------|
口口口口 |②-----|
32
口口口口 |①-----|
②口口口 |②-----|
口口①口 |③-----|
口④口③ |④-----|
33
②口口口 |①-----|
口①口口 |②-----|
口口口口 |------|
口口口口 |------|
34
⑥口口口 |----①-|
口⑤口口 |②---③-|
口③④口 |④---⑤-|
口①②口 |----⑥-|
35
口口口④ |------|
口⑤口口 |①---②-|
口②③口 |③-----|
口口口① |④---⑤-|
36
口口口口 |------|
口口口口 |------|
口口口口 |------|
口口口口 |------|
37
口口口口 |------|
口口口口 |------|
口口口口 |------|
①①口口 |①-----|
38
口口③③ |①-----|
②②口口 |②-----|
口口①① |③-----|
口口口口 |------|
39
口口口口 |①-----|
口②口口 |------|
口①①口 |------|
口口口口 |②-----|
40
①①②② |①-----|
⑤口口口 |②---③-|
口③④口 |④---⑤-|
口⑥口口 |----⑥-|
41
口口口口 |------|
口①口口 |①-----|
口口口口 |------|
口口口口 |------|
42
口③口口 |------|
口口②口 |①-----|
口口口口 |②-----|
口口口① |----③-|
43
②口①口 |①-----|
口口口口 |②-----|
口口口口 |------|
口口口口 |------|
44
口口口口 |------|
口②口口 |①-----|
口口口口 |②-----|
①口口口 |------|
45
②口①口 |①-----|
口口口口 |②-----|
口口口口 |------|
口口口口 |------|
46
口口口口 |①-----|
口口口口 |------|
口②②口 |②-----|
口①①口 |------|
47
②②③③ |①-----|
口①①口 |------|
口口口口 |②-----|
口口口口 |③-----|
48
口口口口 |①-----|
口③④口 |②-----|
①③④② |③-----|
①口口② |④-----|
49
口口口口 |①-----|
口口口口 |------|
②口口② |②-----|
口①①口 |------|
50
①口口① |①-----|
口口口口 |------|
口口口口 |②-----|
口②②口 |------|
51
口①①口 |①-----|
口②③口 |------|
口②③口 |②-----|
口口口口 |③-----|
52
①①口口 |------|
口口口口 |------|
口口口口 |------|
口口口口 |①-----|
53
口口口① |①-----|
口④④① |②-----|
③口口口 |③-----|
③口②② |④-----|
54
②口②口 |①-----|
口口口口 |------|
口①①口 |------|
口口口口 |②-----|
55
口口口口 |①-----|
口①口① |②-----|
②口②口 |------|
口口口口 |------|
56
口口③③ |------|
②口口口 |------|
口口口口 |①---②-|
口①口口 |----③-|
57
口口口口 |------|
口②③口 |①---②-|
口口①口 |③-----|
④口口口 |④-----|
58
①①①① |①-----|
口口口口 |------|
口口口② |------|
口口口② |②-----|
59
口口口口 |①-----|
口口口口 |------|
①②②口 |------|
①口口口 |②-----|
60
①口口① |①-----|
口口口口 |------|
口口口口 |②-----|
口②②口 |------|
61
口①①口 |①-----|
口②③口 |------|
口②③口 |②-----|
口口口口 |③-----|
62
①①口口 |------|
口口口口 |------|
口口口口 |------|
口口口口 |①-----|
63
口口口① |①-----|
口④④① |②-----|
③口口口 |③-----|
③口②② |④-----|
64
②口口③ |①-----|
口②③口 |------|
口①①口 |------|
口口口口 |②---③-|
65
口口口口 |------|
口口口口 |------|
口口口口 |------|
口口口口 |------|
66
②口口口 |①-----|
②口口口 |------|
口口口口 |------|
口①①口 |②-----|
67
口①②口 |①-----|
口①②口 |②-----|
口口口口 |------|
口口口口 |------|
68
口口口② |①-----|
口口口口 |------|
口口口口 |------|
①口口① |②-----|
69
⑤口口口 |①-----|
口④①口 |②-----|
口②口口 |③---④-|
③口口口 |----⑤-|
70
口口①① |①-----|
口口口口 |------|
口口口口 |②-----|
口口②② |------|
71
①①口口 |①-----|
口口口口 |------|
口口口口 |②-----|
②②口口 |------|
72
口口①① |①-----|
口口口口 |------|
口口口口 |②-----|
口口②② |------|
73
①①口口 |①-----|
口④③② |②-----|
口④③② |③-----|
口口口口 |④-----|
74
口口①① |①-----|
口口口口 |------|
口口口口 |②-----|
口口②② |------|
75
①①口口 |①-----|
口口口口 |------|
口口口口 |②-----|
②②口口 |------|
76
口口①① |①-----|
口口口口 |------|
口口口口 |②-----|
口口②② |------|
77
①①口口 |①---②-|
口口③口 |----③-|
口口②口 |----④-|
口④口口 |------|
78
口口口口 |①-----|
口口口口 |------|
①口口① |------|
口口口口 |------|
79
口口口口 |------|
口口口口 |------|
口口口口 |------|
口口口口 |------|
80
口口①① |①-----|
②②口口 |②-----|
口口③③ |③-----|
④④口口 |④-----|
81
口口①口 |------|
口①①① |------|
口①①① |①-----|
口口口口 |------|

不確定度: 0

最終更新:2018年07月16日 22:58