JUMPin' JUMP UP!!!!
fourfolium

BASIC

Level: 3
BPM: 168
Notes: 206

1
口口口口 |----|
口口口口 |----|
口口口口 |----|
口口口口 |----|
2
口口口口 |----|
口口②口 |----|
口①口口 |①---|
口口口口 |②---|
3
①①②② |①---|
口口口口 |----|
口口口口 |②---|
口口口口 |----|
4
口③③口 |①---|
口②②口 |②---|
口①①口 |③---|
口口口口 |----|
5
口口口口 |①---|
①口口② |----|
口口口口 |②---|
口口口口 |----|
6
口口口口 |①---|
口①①口 |----|
口口口口 |----|
口口口口 |----|
7
口口口口 |①---|
口口口口 |②---|
③口口④ |③---|
①口口② |④---|
8
③口口④ |①---|
①口口② |②---|
口口口口 |③---|
口口口口 |④---|
9
口①②口 |①---|
口③④口 |②---|
口口口口 |③---|
口口口口 |④---|
10
口口口口 |①---|
口口口口 |②---|
口①②口 |③---|
口③④口 |④---|
11
口口口口 |①---|
口口口口 |②---|
③口口④ |③---|
①口口② |④---|
12
③口口④ |①---|
①口口② |②---|
口口口口 |③---|
口口口口 |④---|
13
口口口口 |①---|
口①②口 |②---|
口③④口 |③---|
口口口口 |④---|
14
①①口口 |①---|
口口②② |----|
口口口口 |②---|
口口口口 |----|
15
口口口口 |①---|
口口口口 |----|
①①口口 |----|
口口口口 |----|
16
口口口口 |①---|
口口口口 |----|
②口口① |②---|
口口口口 |----|
17
口口口口 |①---|
口口③口 |②---|
口②口口 |③---|
口口①口 |----|
18
口口口口 |①---|
①①②② |----|
口口口口 |②---|
口口口口 |----|
19
口口口口 |①---|
口③口口 |②---|
口②口口 |③---|
口①口口 |----|
20
口口口口 |①---|
口口口① |----|
口口②口 |②---|
口口口口 |----|
21
口口口口 |①---|
口①口口 |----|
②口口口 |②---|
口口口口 |----|
22
口口口口 |①---|
②②①① |----|
口口口口 |②---|
口口口口 |----|
23
口口口口 |①---|
口③③口 |②---|
口②②口 |③---|
口①①口 |----|
24
口口口口 |①---|
口口口口 |----|
①口口② |②---|
口口口口 |----|
25
口口口口 |①---|
口③口口 |②---|
口口②口 |③---|
口①口口 |----|
26
口口口口 |①---|
②②①① |----|
口口口口 |②---|
口口口口 |----|
27
口口口口 |①---|
口口③口 |②---|
口口②口 |③---|
口口①口 |----|
28
口口口口 |①---|
口口口口 |----|
①口口② |②---|
口口口口 |----|
29
口口口口 |①---|
口①②口 |----|
口口口口 |②---|
口口口口 |----|
30
口口口口 |①---|
口口口口 |----|
①口口② |②---|
口口口口 |----|
31
口口口口 |①---|
口③口口 |②---|
口口②口 |③---|
口①口口 |----|
32
②②①① |①---|
口口口口 |----|
口口口口 |②---|
口口口口 |----|
33
口口口口 |①---|
口①①口 |②---|
口②②口 |③---|
口③③口 |----|
34
口口口口 |①---|
口口口口 |----|
口口口口 |----|
口口口① |----|
35
口口口口 |①---|
口口口口 |----|
口口①口 |----|
口口口口 |----|
36
口口口口 |①---|
口①口口 |----|
口口口口 |----|
口口口口 |----|
37
①口口口 |①---|
口口口口 |----|
口口口口 |----|
口口口口 |----|
38
口口①① |①---|
口口口口 |----|
口口口口 |----|
口口口口 |----|
39
口口口口 |①---|
口口①① |----|
口口口口 |----|
口口口口 |----|
40
①①口口 |①---|
口口口口 |----|
口口口口 |----|
口口口口 |----|
41
口口口口 |①---|
①①口口 |----|
口口口口 |----|
口口口口 |----|
42
口口口口 |①---|
口口①① |----|
口口口口 |----|
口口口口 |----|
43
口口口口 |①---|
口口口口 |----|
口②②口 |②---|
口①①口 |----|
44
②②口口 |①---|
口①①口 |----|
口口口口 |----|
口口口口 |②---|
45
口口①① |①---|
口口口口 |②---|
口②②口
口口口口

④口口④
口③③口
口口口口 |----③-|
口口口口 |----④-|
46
口口口口 |----|
口口②口 |----|
口①口口 |①---|
口口口口 |②---|
47
①①②② |①---|
口口口口 |----|
口口口口 |②---|
口口口口 |----|
48
口③③口 |①---|
口②②口 |②---|
口①①口 |③---|
口口口口 |----|
49
口口口口 |①---|
①口口② |----|
口口口口 |②---|
口口口口 |----|
50
口口口口 |①---|
口①①口 |----|
口口口口 |②---|
口②②口 |----|
51
①①②② |①---|
口口口口 |----|
口口口口 |②---|
口口口口 |----|
52
口③③口 |①---|
口②②口 |②---|
口①①口 |③---|
口口口口 |----|
53
口口口口 |①---|
①口口② |----|
口口口口 |②---|
口口口口 |----|
54
口口口口 |①---|
口①①口 |----|
口口口口
口口口口

口口口口
口口③口
口②口口 |②---|
口口口口 |③---|
55
①①②② |①---|
口口口口 |----|
口口口口 |②---|
口口口口 |----|
56
口③③口 |①---|
口②②口 |②---|
口①①口 |③---|
口口口口 |----|
57
口口口口 |①---|
①口口② |----|
口口口口 |②---|
口口口口 |----|
58
口口口口 |①---|
口①①口 |----|
口口口口 |②---|
口②②口 |----|
59
①①②② |①---|
口口口口 |----|
口口口口 |②---|
口口口口 |----|
60
口③③口 |①---|
口②②口 |②---|
口①①口 |③---|
口口口口 |----|
61
口口口口 |①---|
①口口② |----|
口口口口 |②---|
口口口口 |----|
62
口口口口 |①---|
口①①口 |----|
口口口口 |----|
口口口口 |----|
63
口口口口 |①---|
②②②② |----|
口口①口 |②---|
口口口口 |----|

不確定度: 0

最終更新:2018年07月16日 22:57