Glorious Days
GRANRODEO

BASIC

Level: 2
BPM: 135
Notes: 200

1
口口口口 |----|
口口口口 |----|
口口口口 |----|
口口口口 |----|
2
口口口口 |①---|
口口口口 |----|
口口口口 |②---|
①①②② |----|
3
口口口口 |①---|
口口口口 |----|
①①②② |②---|
口口口口 |----|
4
口口口口 |①---|
①①②② |----|
口口口口 |②---|
口口口口 |----|
5
①①②② |①---|
口口口口 |----|
口口口口 |②---|
口口口口 |----|
6
口口口口 |①---|
口口口口 |----|
口口口口 |②---|
①①②② |----|
7
口口口口 |①---|
口口口口 |----|
①①②② |②---|
口口口口 |----|
8
口口口口 |①---|
①①②② |----|
口口口口 |②---|
口口口口 |----|
9
①①②② |①---|
口口口口 |----|
口口口口 |②---|
口口口口 |----|
10
口口口口 |①---|
口口②口 |----|
口①口口 |②---|
口口口口 |----|
11
口口口口 |①---|
口①口口 |----|
口口②口 |②---|
口口口口 |----|
12
口口口口 |①---|
口口口口 |----|
口口口口 |②---|
①①②② |----|
13
口口口口 |①---|
口口口口 |----|
①①②② |②---|
口口口口 |----|
14
口口口口 |①---|
口①口口 |----|
口口②口 |②---|
口口口口 |----|
15
口口口口 |①---|
口口②口 |----|
口①口口 |②---|
口口口口 |----|
16
①①②② |①---|
口口口口 |----|
口口口口 |②---|
口口口口 |----|
17
口口口口 |①---|
①①②② |----|
口口口口 |②---|
口口口口 |----|
18
口口口口 |①---|
口口口口 |----|
口②口口 |②---|
口①口口 |----|
19
口②口口 |①---|
口①口口 |----|
口口口口 |②---|
口口口口 |----|
20
②②①① |①---|
口口口口 |----|
口口口口 |②---|
口口口口 |----|
21
口口口口 |①---|
②②①① |----|
口口口口 |②---|
口口口口 |----|
22
口口①口 |①---|
口口②口 |----|
口口口口 |②---|
口口口口 |----|
23
口口口口 |①---|
口口口口 |----|
口口①口 |②---|
口口②口 |----|
24
口口口口 |①---|
口①口口 |----|
口口口口 |②---|
口口②② |----|
25
口口口口 |①---|
口口口口 |----|
①①②② |②---|
口口口口 |----|
26
口口口口 |①---|
口口②口 |----|
口①口口 |②---|
口口口口 |----|
27
口口口口 |①---|
口①口口 |----|
口口②口 |②---|
口口口口 |----|
28
口口口口 |①---|
口口口口 |----|
口口口口 |②---|
①①②② |----|
29
口口口口 |①---|
口口口口 |----|
①①②② |②---|
口口口口 |----|
30
口口口口 |①---|
口①口口 |----|
口口②口 |②---|
口口口口 |----|
31
口口口口 |①---|
口口②口 |----|
口①口口 |②---|
口口口口 |----|
32
①①②② |①---|
口口口口 |----|
口口口口 |②---|
口口口口 |----|
33
口口口口 |①---|
①①②② |----|
口口口口 |②---|
口口口口 |----|
34
口口口口 |①---|
口口口口 |----|
口②口口 |②---|
口①口口 |----|
35
口②口口 |①---|
口①口口 |----|
口口口口 |②---|
口口口口 |----|
36
②②①① |①---|
口口口口 |----|
口口口口 |②---|
口口口口 |----|
37
口口口口 |①---|
②②①① |----|
口口口口 |②---|
口口口口 |----|
38
口口①口 |①---|
口口②口 |----|
口口口口 |②---|
口口口口 |----|
39
口口口口 |①---|
口口口口 |----|
口口①口 |②---|
口口②口 |----|
40
口口口口 |①---|
口口口口 |----|
口①口口 |②---|
口口②② |----|
41
口口口口 |①---|
口③③口 |----|
①①②② |②---|
口口口口 |--③-|
42
口口口口 |----|
口②②口 |----|
口口口口 |①---|
口①①口 |--②-|
43
口口口口 |----|
口口口口 |----|
口口口口 |----|
口口口口 |----|
44
①口口口 |①---|
口②口口 |----|
口口口口 |②---|
口口口口 |----|
45
口口口口 |①---|
口口口口 |----|
口口①口 |②---|
口口口② |----|
46
口口口口 |①---|
口口口口 |----|
口口②口 |②---|
口①口口 |----|
47
口口②口 |①---|
口①口口 |----|
口口口口 |②---|
口口口口 |----|
48
①口口口 |①---|
口口②口 |----|
口口口口 |----|
口口口口 |--②-|
49
口口口口 |----|
口口口口 |①---|
口①②口 |②---|
口口口口 |----|
50
口口④口 |①---|
口③口口 |②---|
口口②口 |③---|
口①口口 |④---|
51
①①②口 |①---|
口口口口 |----|
口口口口 |----|
口口口口 |②---|
52
口①口口 |①---|
口口②口 |②---|
口③口口 |③---|
口口④口 |④---|
53
口口口口 |①---|
口口口口 |----|
口口②口 |----|
①①口口 |②---|
54
口口口口 |①---|
口②口口 |----|
口①口口 |②---|
口口口口 |----|
55
口①口口 |①---|
口口②口 |----|
口口口口 |②---|
口口口口 |----|
56
口口口① |①---|
口口口口 |----|
口口口口 |----|
口口口口 |----|
57
口口口口 |----|
口①口口 |----|
口口口口 |----|
口口口口 |①---|
58
口④口口 |①---|
口口③口 |②---|
口②口口 |③---|
口口①口 |④---|
59
口②①① |①---|
口口口口 |----|
口口口口 |----|
口口口口 |②---|
60
口口①口 |①---|
口②口口 |②---|
口口③口 |③---|
口④口口 |④---|
61
口口口口 |①---|
口口口口 |----|
口口②口 |----|
口口①① |②---|
62
口口口口 |①---|
口①②口 |----|
口口口口 |②---|
口口口口 |----|
63
口口口口 |①---|
口口口口 |----|
口①口口 |②---|
口口②口 |----|
64
口口口口 |①---|
口口口口 |----|
口口口口 |②---|
①①②② |----|
65
口口口口 |①---|
口口口口 |----|
①①②② |②---|
口口口口 |----|
66
口口口口 |①---|
①①②② |----|
口口口口 |②---|
口口口口 |----|
67
①①②② |①---|
口口口口 |----|
口③③口 |②---|
口口口口 |③---|

不確定度: 0

最終更新:2018年07月16日 22:56