Queen's Paradise
Nanako

EXTREME

Level: 8
BPM: 157
Notes: 629

1
口口口口 |----|
口口口口 |----|
口口口口 |----|
口口口口 |----|
2
口口口口 |①---|
口②③口 |--②-|
④①④口 |③---|
①口口口 |--④-|
3
口口口口 |①---|
①③②口 |----|
口①口口 |②---|
口口口口 |③---|
4
口口①口 |①---|
口③②口 |--②-|
口口④口 |③---|
④口口口 |--④-|
5
口口口口 |①---|
口口口口 |----|
①①口口 |----|
口口口口 |----|
6
口口口口 |①---|
口③④口 |②-③-|
⑤①⑥口 |④---|
②口口口 |⑤-⑥-|
7
口口口口 |①---|
口④③口 |②---|
口①口④ |③---|
口口口② |④---|
8
④①①③ |①---|
口口口口 |②-③-|
口⑤④口 |④---|
①①②口 |⑤---|
9
③③③③ |①--②|
②①①② |--③-|
①口口①
口口口口

口口口口
口口口口
⑧口口⑧ |④⑤⑥⑦|
④⑥⑦⑤ |⑧---|
10
③口口口 |①---|
①②③口 |--②-|
口①④口 |③---|
口口口口 |--④-|
11
口口口口 |①---|
口③②口 |----|
①①口口 |②---|
口口口口 |③---|
12
口口①① |①---|
口③②③ |--②-|
口口④口 |③---|
口口口口 |--④-|
13
口口口口 |①---|
口口口口 |----|
口①口① |----|
口口口口 |----|
14
③口口口 |①---|
①②③口 |--②-|
口①④口 |③---|
口口口口 |--④-|
15
口口口口 |①---|
口③②口 |----|
①①口口 |②---|
口口口口 |③---|
16
③①①② |①---|
③口口② |--②-|
口口口口 |③---|
口口口口 |----|
17
②口口② |①---|
②①①② |②---|
⑦①①⑦ |③④⑤⑥|
③⑤⑥④ |⑦---|
18
①③②① |--①-|
⑥⑦⑤④ |②--③|
口口口口 |④-⑤-|
口口口口 |⑥-⑦-|
19
口口口口 |--①-|
口口口口 |②--③|
口③②① |④-⑤-|
⑥⑦⑤④ |⑥-⑦-|
20
②口口② |①---|
口①①口 |②---|
②④④② |③---|
③口口③ |--④-|
21
①③③① |①---|
③①①③ |②-③-|
②口口② |----|
口②②口 |----|
22
①②③① |--①-|
④⑤⑦⑥ |②--③|
口口口口 |④-⑤-|
口口口口 |⑥-⑦-|
23
口口口口 |--①-|
口口口口 |②--③|
口②③① |④-⑤-|
④⑤⑦⑥ |⑥-⑦-|
24
②口口② |①---|
口①①口 |②---|
④③③④ |③---|
口口口口 |④---|
25
①口口① |①---|
③②②③ |②---|
口④④口 |③---|
④③③④ |④---|
26
②口口② |①--②|
⑤①①⑤ |--③-|
③口口③ |--④-|
口④④口 |⑤---|
27
②⑤⑤② |①--②|
⑤①①⑤ |--③-|
③④④③ |-----④--|
口④④口 |⑤---|
28
③④④③ |①--②|
⑤①①⑤ |--③-|
②口口② |--④-|
口口口口 |⑤---|
29
③口口③ |①--②|
⑥①①⑥ |--③-|
②⑤⑤② |-④⑤-|
①④④① |⑥---|
30
③④④③ |①--②|
口②②口 |--③-|
⑤口口⑤ |--④-|
①口口① |⑤---|
31
③口口③ |①--②|
口②②口 |--③-|
口④④口 |--④-|
①⑤⑤① |⑤---|
32
②口口② |①--②|
口③③口 |--③-|
⑤口口⑤ |--④-|
①④④① |⑤---|
33
②⑥⑥② |--①-|
④②②④ |②---|
⑤①①⑤ |③④-⑤|
①③③① |⑥---|
34
①⑦⑤① |--①-|
⑥③②④ |②--③|
口口口口 |④-⑤-|
口口口口 |⑥-⑦-|
35
口口口口 |--①-|
口口口口 |②--③|
①⑦⑤① |④-⑤-|
⑥③②④ |⑥-⑦-|
36
②口口② |①---|
口①①口 |②---|
②口口②
口口口口

口口口口
口④④口
口口口口 |③---|
③口口③ |--④-|
37
①③③① |①---|
③口口③ |②-③-|
②口口② |----|
口②②口 |----|
38
①⑤⑦① |--①-|
④②③⑥ |②--③|
口口口口 |④-⑤-|
口口口口 |⑥-⑦-|
39
口口口口 |--①-|
口口口口 |②--③|
①⑤⑦① |④-⑤-|
④②③⑥ |⑥-⑦-|
40
②口口② |①---|
口①①口 |②---|
③④④③ |③---|
口口口口 |④---|
41
①口口① |①---|
③②②③ |②---|
口④④口 |③---|
④③③④ |④---|
42
②口口② |①--②|
⑤①①⑤ |--③-|
③口口③ |--④-|
口④④口 |⑤---|
43
②⑤⑤② |①--②|
口①①口 |--③-|
③④④③ |--④-|
口口口口 |⑤---|
44
③④④③ |①---②|
⑤①①⑤ |--③-|
②口口② |--④-|
口口口口 |⑤---|
45
③⑥⑥③ |①--②|
口①①口 |--③-|
②⑤⑤② |-④⑤-|
口④④口 |⑥---|
46
③④④③ |①--②|
口②②口 |--③-|
⑤口口⑤ |--④-|
①口口① |⑤---|
47
口口口口 |①--②|
③⑤⑤③ |--③-|
口④④口 |--④-|
①②②① |⑤---|
48
⑧①①⑧ |①--②|
②口口② |--③④|
⑦③③⑥ |⑤--⑥|
⑤口口④ |⑦-⑧-|
49
口①①口 |----|
口②②口 |①---|
口③③口 |②---|
口口口口 |③---|
50
①口口① |①---|
口②②口 |--②-|
③口口③ |③---|
口④④口 |--④-|
51
①口口② |①-②-|
①⑤⑤② |③-④-|
⑥③③⑦ |--⑤-|
④口口④ |⑥-⑦-|
52
④口口④ |①---|
①⑤⑤① |--②-|
口口口口 |③---|
③②②③ |④-⑤-|
53
口①①口 |----|
口口口口 |①---|
口②②口 |②---|
口③③口 |③---|
54
①口口① |①---|
口②②口 |--②-|
③口口③ |③---|
口④④口 |--④-|
55
①口口② |①-②-|
①口口② |③-④-|
口③③口
④口口④

⑥口口⑦
口⑤⑤口
⑥口口⑦ |--⑤-|
口口口口 |⑥-⑦-|
56
口①①口 |①---|
②口口② |----|
口①①口 |②---|
②口口② |----|
57
①口口① |①----②--|
③①①③ |--③-④-|
①④④①
口②②口

⑧⑤⑤⑧
口口口口
⑦口口⑦ |⑤---⑥-|
⑥口口⑥ |--⑦-⑧-|
58
口③③口 |①---②|
②①①② |--③-|
⑧口口⑧ |④⑤⑥⑦|
④⑥⑦⑤ |⑧---|
59
③口口口 |①---|
①②③口 |--②-|
口①④口 |③---|
口口口口 |--④-|
60
口口口口 |①---|
口③②口 |----|
①①口口 |②---|
口口口口 |③---|
61
口口①① |①---|
口③②③ |--②-|
口口④口 |③---|
口口口口 |--④-|
62
口口口口 |①---|
口口口口 |----|
口①口① |----|
口口口口 |----|
63
③口口口 |①---|
①②③口 |--②-|
口①④口 |③---|
口口口口 |--④-|
64
口口口口 |①---|
口③②口 |----|
①①口口 |②---|
口口口口 |③---|
65
③①①② |①---|
③口口② |--②-|
口口口口 |③---|
口口口口 |----|
66
口③口④ |①---|
③口④⑤ |②---|
①口②口 |③---|
口①口② |④-⑤-|
67
①⑤①⑤ |①---|
③②⑥口 |②-③-|
口口④口 |④-⑤-|
口口口口 |--⑥-|
68
口口口口 |--①-|
⑤口口④ |②-③-|
②①③④ |④---|
口口口口 |--⑤-|
69
⑤①⑤① |①---|
口⑥②③ |②-③-|
口④口口 |④-⑤-|
口口口口 |--⑥-|
70
④②③① |--①-|
④⑤⑤口 |②-③-|
口口口口 |④---|
口口口口 |--⑤-|
71
⑤④④⑤ |①---|
③口口③ |②-③-|
②①②① |--④-|
口口口口 |--⑤-|
72
口口口口 |①---|
口①①口 |②---|
②②②② |③---|
口③③口 |----|
73
③口口口 |①---|
①②③口 |--②-|
口①④口 |③---|
口口口口 |--④-|
74
口口口口 |①---|
口③②口 |----|
①①口口 |②---|
口口口口 |③---|
75
③①①② |①---|
③④④② |--②-|
④口口④ |③---|
口④④口 |--④-|


不确定度: 0

最終更新:2012年11月11日 16:40