Glorious Days
GRANRODEO

ADVANCED

Level: 5
BPM: 135
Notes: 514

1
口口口口 |----|
口口口口 |----|
口口口口 |----|
口口口口 |----|
2
①口⑦⑦ |①-②-|
口⑤口② |③-④-|
③口⑥口 |⑤-⑥-|
口口口④ |⑦---|
3
①口口口 |①-②-|
⑤⑤口② |③-④-|
③口⑥⑥ |⑤---|
口口口④ |⑥---|
4
①口⑦⑦ |①-②-|
口⑤口② |③-④-|
③口⑥口 |⑤-⑥-|
口口口④ |⑦---|
5
①口口口 |①-②-|
口⑤口② |③-④-|
③口⑥口 |⑤-⑥-|
口⑦口④ |⑦---|
6
①①⑦⑦ |①-②-|
口⑤口② |③-④-|
③口⑥口 |⑤-⑥-|
口口口④ |⑦---|
7
①口口口 |①-②-|
⑤⑤口② |③-④-|
③口⑥⑥ |⑤---|
口口口④ |⑥---|
8
①口⑦⑦ |①-②-|
口⑤口② |③-④-|
③口⑥口 |⑤-⑥-|
口口口④ |⑦---|
9
③③⑥⑥ |①-②-|
口口口口 |③-④-|
口⑤⑦② |⑤-⑥-|
①口④口 |--⑦-|
10
①①口口 |①--②|
口口③口 |--③-|
口②口口 |--④-|
口④⑤口 |⑤---|
11
口口①① |①--②|
②④④口 |--③-|
口⑤⑤口 |④---|
口口口③ |⑤---|
12
①口⑦⑦ |①-②-|
口⑤口② |③-④-|
③口⑥口 |⑤-⑥-|
口口口④ |⑦---|
13
①口口口 |①-②-|
口⑦口② |③-④-|
③口⑥口 |⑤-⑥-|
口⑤⑧④ |⑦-⑧-|
14
①①口口 |①--②|
⑥口③口 |--③-|
口②口口 |--④-|
口④⑤口 |⑤-⑥-|
15
口口③口 |①--②|
口口口① |--③-|
口口②口 |--④-|
④口口⑤ |⑤---|
16
口口口口 |①-②-|
口口口② |③-④-|
③①①口
口口口④

口口⑦⑦
口⑤口口
口口⑥口 |⑤-⑥-|
口口口口 |⑦---|
17
①口口口 |①-②-|
口口口② |③-④-|
③口口口
口口口④

口口⑧口
口口⑦⑧
口⑥口口 |⑤-⑥-|
⑤口口口 |⑦-⑧-|
18
口①口④ |--①-|
①口④口 |--②-|
②口口③ |--③-|
口②③口 |--④-|
19
①口口口 |--①-|
口①口口 |--②-|
口②③口 |--③-|
②口口③ |----|
20
①口⑦⑦ |①-②-|
口⑤口② |③-④-|
③口⑥口 |⑤-⑥-|
口口口④ |⑦---|
21
①口口口 |①-②-|
口口口② |③-④-|
③口口口
口口口④

口口⑧口
口口⑦⑧
口⑥口口 |⑤-⑥-|
⑤口口口 |⑦-⑧-|
22
口①口④ |--①-|
①口④口 |--②-|
②口口③ |--③-|
口②③口 |--④-|
23
①④④口 |--①-|
口①口口 |--②-|
口②③口 |--③-|
②口口③ |--④-|
24
①口⑦⑦ |①-②-|
口⑤口② |③-④-|
③口⑥口 |⑤-⑥-|
口口口④ |⑦---|
25
①口口口 |①-②-|
口⑦口② |③-④-|
③口⑥口 |⑤-⑥-|
口⑤口④ |⑦---|
26
①①口口 |①--②|
口口③口 |--③-|
口②口口
口口口口

口口口口
口口口口
口⑥口口 |--④-|
口④⑤口 |⑤-⑥-|
27
口口①① |①--②|
②④④口 |--③-|
口⑤⑤口 |④---|
口口口③ |⑤---|
28
①口⑦⑦ |①-②-|
口⑤口② |③-④-|
③口⑥口 |⑤-⑥-|
口口口④ |⑦---|
29
①口口口 |①-②-|
口⑦口② |③-④-|
③口⑥口 |⑤-⑥-|
口⑤⑧④ |⑦-⑧-|
30
①①口口 |①--②|
⑥口③口 |--③-|
口②口口 |--④-|
口④⑤口 |⑤-⑥-|
31
口口③口 |①--②|
口口口① |--③-|
口口②口 |--④-|
④口口⑤ |⑤---|
32
口口口口 |①-②-|
口口口② |③-④-|
③①①口
口口口④

口口⑦⑦
口⑤口口
口口⑥口 |⑤-⑥-|
口口口口 |⑦---|
33
①口口口 |①-②-|
口口口② |③-④-|
③口口口
口口口④

口口⑧口
口口⑦⑧
口⑥口口 |⑤-⑥-|
⑤口口口 |⑦-⑧-|
34
口①口④ |--①-|
①口④口 |--②-|
②口口③ |--③-|
口②③口 |--④-|
35
①口口口 |--①-|
口①口口 |--②-|
口②③口 |--③-|
②口口③ |----|
36
①口⑦⑦ |①-②-|
口⑤口② |③-④-|
③口⑥口 |⑤-⑥-|
口口口④ |⑦---|
37
①口口口 |①-②-|
口口口② |③-④-|
③口口口
口口口④

口口⑧口
口口⑦⑧
口⑥口口 |⑤-⑥-|
⑤口口口 |⑦-⑧-|
38
口①口④ |--①-|
①口④口 |--②-|
②口口③ |--③-|
口②③口 |--④-|
39
①④④口 |--①-|
口①口口 |--②-|
口②③口 |--③-|
②口口③ |--④-|
40
①口⑦⑦ |①-②-|
口⑤口② |③-④-|
③口⑥口 |⑤-⑥-|
口口口④ |⑦---|
41
①口口口 |①-②-|
口口口② |③-④-|
③口口口
口口口④

⑧口⑧口
口⑦口口
口⑥口口 |⑤-⑥-|
口⑤口口 |⑦-⑧-|
42
口⑤口⑤ |--①-|
口④口口 |----|
口口③口 |②-③-|
①②①口 |④-⑤-|
43
③③口口 |--①-|
口口口口 |----|
口②②口 |--②-|
口①口① |--③-|
44
口口③③ |--①-|
④口口④ |--②-|
口口口口 |--③-|
②②①① |--④-|
45
③③口口 |--①-|
口口口口 |②---|
口①②口 |----|
口口口口 |--③-|
46
⑤口口口 |--①-|
口口①口 |②-③-|
⑥④口口 |④--⑤|
口②③口 |--⑥-|
47
口口③③ |----|
口②①口 |--①-|
口口口口 |②---|
口口口口 |③---|
48
口④④口 |①---|
口③③口 |②---|
⑤②②⑤ |③---|
口①①口 |④-⑤-|
49
口口口口 |--①-|
①①②② |②-③-|
口口口口
口③③口

⑥口口口
⑥口口口
④④⑤⑤ |--④-|
口口口口 |⑤-⑥-|
50
口②②① |①---|
口口口① |②-③-|
口口口口
口③③口

⑤口口⑤
口⑤⑤口
口④④口 |--④-|
口口口口 |--⑤-|
51
口口口口 |----|
①①口口 |----|
口②②口 |--①-|
口口③③ |②-③-|
52
①①②② |--①-|
⑤④④⑤ |②-③-|
口③③口 |--④-|
口⑤⑤口 |--⑤-|
53
口③③口 |----|
口口口口 |----|
②口口① |--①-|
②口口① |②-③-|
54
①口口② |--①-|
①口口② |②-③-|
③③口口
口口口口

口口⑥⑥
口口口口
口口④④ |④---|
⑤⑤口口 |⑤-⑥-|
55
①①⑦⑦ |--①-|
⑥⑥③③ |②-③-|
口口⑤⑤ |④-⑤-|
④④②② |⑥-⑦-|
56
口口口口 |----|
口口口口 |----|
口口口口 |----|
口口口口 |----|
57
口口口口 |----|
口口口口 |----|
①①②② |--①-|
口口口口 |②---|
58
①②②① |①---|
口口口口 |②-③-|
口口口口
口③③口

⑤口口⑤
口⑤⑤口
口④④口 |--④-|
口口口口 |--⑤-|
59
③③口口 |----|
口口口口 |----|
口口②② |--①-|
①①口口 |②-③-|
60
口口①① |--①-|
口口②② |--②-|
口口③③ |--③-|
口口④④ |--④-|
61
口口口口 |----|
口③口口 |----|
口口②口 |--①-|
口①口口 |②-③-|
62
口口口① |--①-|
②口口⑦ |②-③-|
⑥口口③ |④-⑤-|
④口口⑤ |⑥-⑦-|
63
口口口② |--①-|
口③④口 |----|
口口口口 |②---|
口①①口 |③-④-|
64
①口⑦⑦ |①-②-|
口⑤口② |③-④-|
③口⑥口 |⑤-⑥-|
口口口④ |⑦---|
65
①口口口 |①-②-|
⑤⑤口② |③-④-|
③口⑥⑥ |⑤---|
口口口④ |⑥---|
66
①①④④ |①-②-|
口口②口 |③-④-|
口口口口
口③口口

⑦⑦口口
口⑤⑧口
口口口口 |⑤-⑥-|
口口⑥口 |⑦-⑧-|
67
口口②② |①-②-|
口③口口 |③-④-|
口口口口
口①④口

口⑥⑥口
⑤口口⑤
口⑥⑥口 |⑤---|
口口口口 |⑥---|

不確定度: 0

最終更新:2018年07月16日 22:56