羽根亡キ少女唄
純情ディスコード

BASIC

Level: 3
BPM: 174
Notes: 213

1
口口口口 |----|
口口口口 |----|
口口口口 |----|
口口口口 |----|
2
口口口口 |----|
口口口口 |----|
口口口口 |----|
口口口口 |----|
3
口口口口 |----|
口口口口 |----|
口口口口 |----|
口口口口 |----|
4
口口口口 |①---|
口口口口 |----|
口②口口 |②---|
口①口口 |----|
5
口②口口 |①---|
口①口口 |----|
口口口口 |②---|
口口口口 |----|
6
口口①口 |①---|
口口②口 |----|
口口口口 |②---|
口口口口 |----|
7
口口口口 |①---|
口口口口 |----|
口口①口 |②---|
口口②口 |----|
8
口口口口 |①---|
口口口口 |----|
②①①② |②---|
口口口口 |----|
9
口口口口 |①---|
①②②① |----|
口口口口 |②---|
口口口口 |----|
10
口口口口 |①---|
口口口口 |----|
口①①口 |----|
口口口口 |----|
11
口口口口 |①---|
口口口口 |----|
口口口口 |----|
口①①口 |----|
12
口口口口 |①---|
口口口① |----|
口口口口 |----|
口口口口 |----|
13
口口口口 |①---|
口口口口 |----|
口口①口 |----|
口口口口 |----|
14
口口口口 |①---|
口口口口 |----|
口口口口 |----|
口①口口 |----|
15
口口口口 |----|
口口口口 |----|
口口口口 |----|
口口口口 |----|
16
口口口口 |①---|
口口口口 |----|
口口口口 |----|
口口①口 |----|
17
口口口口 |①---|
口口口口 |----|
口①口口 |----|
口口口口 |----|
18
口口口口 |①---|
①口口口 |----|
口口口口 |----|
口口口口 |----|
19
口口口口 |①---|
口②②口 |----|
口①①口 |②---|
口口口口 |----|
20
口口口口 |①---|
口口口① |----|
口口②口 |②---|
口口口口 |----|
21
口口口口 |①---|
口口口口 |----|
口口口口 |----|
口①口口 |----|
22
口口口口 |①---|
口口口口 |----|
口②口口 |②---|
口口①口 |----|
23
口口口口 |----|
口口口口 |----|
口口口口 |----|
口口口口 |----|
24
口口口口 |①---|
①口口口 |----|
口②口口 |②---|
口口口口 |----|
25
口口口口 |①---|
口口口口 |----|
口②②口 |②---|
口口①口 |----|
26
口口口口 |①---|
口口口口 |----|
①口口① |----|
口口口口 |----|
27
口口口口 |----|
口口口口 |----|
口口口口 |①---|
口①①口 |----|
28
口口口口 |①---|
口口口口 |----|
口口①② |②---|
口口口口 |----|
29
口口口口 |①---|
口口口口 |----|
②①口口 |②---|
口口口口 |----|
30
口口口口 |①---|
口口①② |----|
口口口口 |②---|
口口口口 |----|
31
口口口口 |①---|
②①口口 |----|
口口口口 |②---|
口口口口 |----|
32
①口口① |①---|
口②②口 |----|
口口口口 |②---|
口口口口 |----|
33
口②②口 |①---|
①口口① |----|
口口口口 |②---|
口口口口 |----|
34
①口口① |①---|
口口口口 |----|
口口口口 |----|
口口口口 |----|
35
口口口口 |①---|
口②②口 |----|
①口口① |②---|
口口口口 |----|
36
口口口口 |①---|
口口口口 |②---|
口③④口 |③---|
口①②口 |④---|
37
口③④口 |①---|
口①②口 |②---|
口口口口 |③---|
口口口口 |④---|
38
①口口② |①---|
③口口④ |②---|
口口口口 |③---|
口口口口 |④---|
39
口口口口 |①---|
口口口口 |②---|
①口口② |③---|
③口口④ |④---|
40
口口口口 |①---|
口口口口 |②---|
口③④口 |③---|
口①②口 |④---|
41
口③④口 |①---|
口①②口 |②---|
口口口口 |③---|
口口口口 |④---|
42
②口口② |①---|
①口口① |----|
口口口口 |②---|
口口口口 |----|
43
口口口口 |①---|
口①①口 |----|
口①①口 |----|
口口口口 |----|
44
口口口口 |①---|
④③②① |②---|
口口口口 |③---|
口口口口 |④---|
45
口口口口 |①---|
口口口口 |----|
口①①口 |----|
口口口口 |----|
46
口口口口 |①---|
①②③④ |②---|
口口口口 |③---|
口口口口 |④---|
47
口①①口 |①---|
口口口口 |----|
口口口口 |----|
口口口口 |----|
48
口口口口 |①---|
口口②① |②---|
④③口口 |③---|
口口口口 |④---|
49
口口口口 |①---|
①②口口 |②---|
口口③④ |③---|
口口口口 |④---|
50
口口口口 |①---|
口口②① |②---|
④③口口 |③---|
口口口口 |④---|
51
口口口口 |①---|
口口口口 |----|
口②②口 |②---|
口①①口 |----|
52
口口口口 |----|
①口口① |①---|
口口②口 |----|
口口口口 |②---|
53
口口口口 |----|
口口口口 |①---|
口口口口 |----|
口①②口 |②---|
54
口口口口 |----|
②口口口 |①---|
口①口口 |----|
口口口口 |②---|
55
口口口口 |----|
口口口口 |①---|
①口口① |----|
口口口口 |----|
56
口口口口 |----|
①①口口 |①---|
口口口口 |----|
口口口口 |----|
57
口口口口 |----|
口口①① |①---|
口口口口 |----|
口口口口 |----|
58
口口口口 |----|
口口口口 |①---|
口口口口 |----|
口①①口 |----|
59
口口口口 |----|
口①①口 |①---|
口口口口 |----|
口口口口 |----|
60
口口口口 |----|
口口口口 |①---|
口口口口 |----|
口①口口 |----|
61
口口口口 |----|
口口口口 |①---|
口口①口 |----|
口口口口 |----|
62
口口口口 |----|
口①口口 |①---|
口口口口 |----|
口口口口 |----|
63
口口①口 |----|
口口口口 |①---|
口口口口 |----|
口口口口 |----|
64
口①口口 |----|
口②口口 |①---|
口口口口 |----|
口口口口 |②---|
65
口口口口 |----|
口口①口 |①---|
口口②口 |----|
口口口口 |②---|
66
口口口口 |----|
口口口口 |①---|
口①口口 |----|
口②口口 |②---|
67
口口口口 |----|
口口口口 |①---|
①口口① |----|
口口口口 |----|
68
口口口口 |----|
口口口口 |①---|
口③口口 |②---|
口①②口 |③---|
69
口④口口 |①---|
口②③口 |②---|
口口①口 |③---|
口口口口 |④---|
70
②口①③ |①---|
④口口口 |②---|
口口口口 |③---|
口口口口 |④---|
71
口口口口 |①---|
口口口① |②---|
②口口③ |③---|
④口口口 |④---|
72
口口口口 |①---|
口口口口 |②---|
口④口口 |③---|
口②③① |④---|
73
口④口口 |①---|
口②③口 |②---|
口口①口 |③---|
口口口口 |④---|
74
③口①③ |①---|
②口口② |②---|
口口口口 |----|
口口口口 |③---|
75
口口口口 |----|
口①①口 |①---|
口①①口 |----|
口口口口 |----|
76
②口口② |----|
①口口① |①---|
口口口口 |----|
口口口口 |②---|
77
口口口口 |----|
口①①口 |①---|
口①①口 |----|
口口口口 |----|
78
口口口口 |----|
口口口口 |----|
口口口口 |----|
口口口口 |----|
79
口口①口 |----|
口口②口 |①---|
口口口口 |----|
口口口口 |②---|
80
口口口口 |----|
口口口口 |①---|
口口①口 |----|
口口②口 |②---|
81
口口口口 |----|
口口口口 |①---|
②①①② |----|
口口口口 |②---|
82
口口口口 |----|
①②②① |①---|
口口口口 |----|
口口口口 |②---|
83
口口口口 |----|
口口口口 |①---|
口①①口 |----|
口口口口 |----|
84
①①①① |①---|
口口口口 |----|
口口口口 |----|
口口口口 |----|

不確定度: 0

最終更新:2017年09月06日 23:06