羽根亡キ少女唄
純情ディスコード

ADVANCED

Level: 6
BPM: 174
Notes: 482

1
口口口口 |----|
口口口口 |----|
口口口口 |----|
口口口口 |----|
2
口口口口 |----|
口口口口 |----|
口口口口 |----|
口口口口 |----|
3
口口口口 |----|
口口口口 |----|
口口口口 |----|
口口口口 |----|
4
④口④口 |①---|
③口③口 |②---|
②口②口 |③---|
①口①口 |④---|
5
口④口④ |①---|
口③口③ |②---|
口②口② |③---|
口①口① |④---|
6
④口④口 |①---|
③口③口 |②---|
②口②口 |③---|
①口①口 |④---|
7
口口口② |①---|
口口②口 |②---|
③①①④ |③-④-|
⑤口口⑥ |⑤-⑥-|
8
②口口口 |①---|
口①①② |----|
口①①口 |②---|
口口口口 |----|
9
口口口② |①---|
②①①口 |----|
口①①口 |②---|
口口口口 |----|
10
口口口口 |①---|
口①①口 |--②-|
口③③口 |----|
口②②口 |③---|
11
②口口① |①-②-|
④口口③ |③-④-|
⑥口口⑤ |⑤-⑥-|
口口口⑦ |⑦---|
12
⑤口③④ |①---|
②口口口 |②---|
口①①口 |③-④-|
口口口口 |--⑤-|
13
口口口口 |--①-|
口⑤②③ |--②-|
口口①口 |③-④-|
口④口口 |--⑤-|
14
口口口口 |①---|
①口③② |②-③-|
口口口口 |----|
口口口口 |----|
15
口口口口 |----|
口口口口 |----|
口口口口 |----|
口口口口 |----|
16
口口口⑥ |①---|
口口⑥口 |②-③-|
口①①口 |④-⑤-|
②③④⑤ |--⑥-|
17
①口口口 |----|
③①口② |①---|
口③②口 |②---|
口口口口 |③---|
18
④口口③ |①-②-|
口②①口 |--③-|
口口口口 |--④-|
口口口口 |----|
19
口口口口 |①-②-|
口③②口 |③-④-|
⑤①④⑥ |⑤-⑥-|
⑤口口⑥ |----|
20
口口口③ |①---|
②口④口 |②---|
口⑤口口 |③--④|
口①①口 |--⑤-|
21
口口口口 |①--②|
口口口① |--③-|
④口②口 |----|
口③口口 |④---|
22
③口口④ |①--②|
口②口口 |--③-|
口口①口 |--④-|
口口口口 |----|
23
口口口口 |----|
口口口口 |----|
口口口口 |----|
口口口口 |----|
24
口口⑥口 |①---|
口口口⑥ |②-③-|
口①①口 |④-⑤-|
②③④⑤ |--⑥-|
25
口①口口 |----|
①口口口 |①---|
口④②口 |②--③|
③口口口 |--④-|
26
④④口口 |①---|
口②③口 |----|
口口口口 |--②-|
口口①口 |③-④-|
27
口口①① |--①-|
口口③口 |--②-|
②④口② |③---|
口口口口 |④---|
28
口口③③ |①---|
②②口口 |②---|
口口①口 |----|
口口口口 |--③-|
29
①口口口 |----|
口②口口 |----|
口口口口 |①---|
口口口口 |②---|
30
口口口口 |①---|
口口口口 |②---|
口④②口 |③---|
③口口① |④---|
31
口口口口 |①---|
口②②口 |--②-|
口③③口 |----|
口①①口 |③---|
32
口口口① |①---|
②口口口 |②---|
口口口③ |③---|
④口口口 |④---|
33
口口口口 |①---|
③①②③ |②---|
口②①口 |③---|
口④④口 |④---|
34
①①①① |①---|
口口口口 |----|
口②②口 |②---|
口口口口 |----|
35
口口口口 |①---|
①口口① |----|
口③③口 |②---|
②口口② |③---|
36
口②③⑤ |①---|
①口⑥① |②-③-|
口④口口 |--④-|
口口口口 |⑤-⑥-|
37
口口⑤口 |①---|
①④③② |--②-|
①口口② |--③-|
口口口口 |④-⑤-|
38
⑤①口口 |①---|
口⑥口口 |②-③-|
口口④口 |--④-|
口③②口 |⑤-⑥-|
39
口⑤口口 |①---|
②③④① |--②-|
②口口① |--③-|
口口口口 |④-⑤-|
40
口口①口 |①---|
②口⑤口 |--②-|
口④口口 |--③-|
口口③口 |④-⑤-|
41
①口口① |①---|
③④④③ |②---|
②口口② |③---|
口口口口 |④---|
42
③口口④ |①---|
口③④口 |②---|
口①②口 |③---|
①口口② |④---|
43
口口口口 |①---|
口口口口 |----|
①①①① |----|
口口口口 |----|
44
口⑤⑤口 |①-②-|
④③②① |③-④-|
口⑥⑥口 |⑤---|
口口口口 |--⑥-|
45
口口口口 |----|
①②③④ |--①-|
口口口口 |②-③-|
口口口口 |④---|
46
①口⑥② |①---|
口⑤口口 |②---|
口口④口 |③-④-|
口③口口 |⑤-⑥-|
47
口口口口 |----|
①口②口 |--①-|
口①口② |--②-|
口口口口 |----|
48
口⑦口⑧ |①-②-|
⑤口⑥口 |③-④-|
口③口④ |⑤-⑥-|
①口②口 |⑦-⑧-|
49
口口口口 |----|
口口口口 |--①-|
口①①口 |----|
口口口口 |----|
50
口⑤⑤口 |①-②-|
④③②① |③-④-|
口口口口 |----|
口口口口 |⑤---|
51
口口口口 |①--②|
④口口① |--③-|
⑤口口② |④--⑤|
⑥口口③ |--⑥-|
52
口②③口 |----|
口④②口 |①---|
口①①口 |②---|
口①①口 |③--④|
53
口口口② |--①-|
口口③⑤ |②--③|
①④⑥口 |--④-|
口口口口 |⑤--⑥|
54
⑤②口口 |--①-|
口⑥③口 |②--③|
口口口④ |--④-|
口①口口 |⑤--⑥|
55
口口口③ |--①-|
②口③口 |②---|
口口①口 |--③-|
口口口口 |----|
56
口口口口 |①---|
④④口口 |②---|
口①①口 |③---|
②②③③ |④---|
57
④④口口 |①---|
口口①① |②---|
②②③③ |③---|
口口口口 |④---|
58
口口①① |①---|
③口口③ |②---|
口②②口 |----|
口口口口 |③---|
59
①口口① |①---|
口口口口 |----|
口口口口 |----|
口②②口 |②---|
60
①口口口 |----|
口①口口 |①---|
口口①口 |----|
口口口口 |----|
61
口口口① |----|
口口①口 |①---|
口①口口 |----|
口口口口 |----|
62
口口口口 |----|
①①①① |①---|
口口口口 |----|
口口口口 |----|
63
口⑤口口 |----|
⑤③④口 |①-②-|
口①②口 |③-④-|
口口口口 |--⑤-|
64
②②口口 |----|
口口口口 |①---|
口口口口 |----|
口口①① |②---|
65
口口②② |----|
口口口口 |①---|
口口口口 |----|
①①口口 |②---|
66
③口口口 |----|
口③口口 |①---|
口①②口 |②---|
①口口② |③---|
67
口口口① |①---|
口口①口 |②---|
②②②② |----|
③口口③ |③---|
68
口口口口 |①---|
②口口② |②---|
口①①口
口口口口

口③④口
口口口口
口⑤口口 |③-④-|
口口口口 |--⑤-|
69
口口口① |①-②-|
③口②口 |③---|
③口口口
口口口口

口口口口
口口⑤④
口口口④ |--④-|
口口口口 |--⑤-|
70
口③②口 |①-②-|
口①口口 |③---|
口口⑥口 |④-⑤-|
口⑤④口 |--⑥-|
71
①口口口 |①-②-|
口②口③ |③---|
口口口③
口口口口

口口口口
④⑤口口
④口口口 |--④-|
口口口口 |--⑤-|
72
口②③口 |①-②-|
④口①口 |③---|
口口口口 |--④-|
口口⑤口 |--⑤-|
73
③口口③ |①-②-|
⑤口②⑤ |③---|
④①口④ |④---|
口口口口 |⑤---|
74
口口口口 |①---|
口①①口 |②---|
口②口口
②口口口

④口口口
口④口口
口口③口 |③---|
口口口③ |④---|
75
口口口① |①---|
口口①口 |②---|
②②②②
口口口口

口口口口
口③③口
口口口口 |----|
口口口口 |③---|
76
④①①口 |①---|
口④口口 |②---|
口②③口 |③---|
②口口③ |④---|
77
口口口① |①---|
口口①口 |②---|
口口口口
②②②②

口口口口
④口④口
③口③口 |③---|
口口口口 |④---|
78
①口①口 |①---|
口④口④ |②---|
口③口③ |③---|
口②口② |④---|
79
口①口① |①---|
④口④口 |②---|
③口③口 |③---|
②口②口 |④---|
80
①口①③ |①---|
口口③口 |②---|
④②②⑤ |③---|
口口口口 |④-⑤-|
81
④口口口 |①-②-|
口③③④ |③---|
口③③口 |----|
①口口② |④---|
82
口口口② |----|
②①①口 |①---|
口①①口 |----|
口口口口 |②---|
83
口口口口 |----|
口①①口 |①---|
口口口口 |--②-|
口②②口 |----|
84
口口口口 |①-②-|
②②②② |----|
口①①口 |----|
口口口口 |----|

不確定度: 0

最終更新:2017年09月06日 23:06