羽根亡キ少女唄
純情ディスコード

EXTREME

Level: 9
BPM: 174
Notes: 734

1
口口口口 |----|
口口口口 |----|
口口口口 |----|
口口口口 |----|
2
口口口口 |----|
口口口口 |----|
口口口口 |----|
口口口口 |----|
3
口口口① |①-②③|
口⑦口④ |④-⑤-|
口②⑦⑥ |⑥-⑦-|
⑤③口口 |----|
4
口⑤①① |①--②|
口⑥③③ |--③-|
口口④口 |--④-|
口②口口 |⑤-⑥-|
5
口口口口 |①--②|
⑤口口② |--③-|
口口口口 |④--⑤|
①⑥③④ |--⑥-|
6
口口口口 |①--②|
口③⑥口 |--③-|
①④②⑤ |④--⑤|
口口口口 |--⑥-|
7
③③③③ |①-②-|
②④口口 |③---|
⑥口①⑤ |④-⑤-|
口口⑦口 |⑥-⑦-|
8
⑦口⑥⑥ |①-②-|
口③口口 |③④⑤-|
口口④⑧ |⑥-⑦-|
①⑤口② |--⑧-|
9
⑦口⑥⑥ |①-②-|
口③口口 |③④⑤-|
口口④⑧ |⑥-⑦-|
①⑤口② |--⑧-|
10
口口口口 |①-②-|
①②③口 |③-④-|
①④口口
口④口口

⑦⑧口口
⑦口口口
口口口口 |⑤-⑥-|
口口⑤⑥ |⑦-⑧-|
11
口口①口 |①-②-|
口②③口 |③-④-|
口④⑤口 |⑤-⑥-|
口⑥⑦口 |⑦---|
12
⑤口④口 |①---|
①③口① |②---|
②口口② |③-④-|
口口口口 |--⑤-|
13
口口口口 |--①-|
②③口④ |--②-|
口口①口 |③--④|
口⑤口口 |--⑤-|
14
⑥②口口 |①---|
口⑤口口 |②-③-|
口③④① |--④-|
口口口口 |⑤-⑥-|
15
口口③① |①-②-|
口口②④ |③-④-|
口⑥⑤口 |--⑤-|
⑦口口口 |⑥-⑦-|
16
口口口口 |①---|
口③①口 |②-③-|
②口口口
口口①口

⑥口⑤⑥
口口⑥④
口口口口 |④-⑤-|
口口口口 |--⑥-|
17
口口口口 |----|
②①口口 |①---|
口③②① |②---|
口口口③ |③---|
18
④口口③ |①--②|
口③④口 |--③-|
②口口② |--④-|
口①①口 |----|
19
口②③口 |①-②-|
⑥⑥⑤⑤ |③-④-|
口④①口 |⑤-⑥-|
口⑥⑤口 |----|
20
④口口③ |①---|
口⑤⑤口 |②---|
①口②① |③--④|
①③④① |--⑤-|
21
口②①口 |①--②|
口口口口 |--③-|
④③③口 |----|
①④口② |④---|
22
⑥③①口 |①--②|
口⑤②① |--③-|
口②④③ |--④-|
口口口口 |⑤-⑥-|
23
口口③① |①-②-|
口口②④ |③-④-|
口⑥⑤口 |--⑤-|
⑦口口口 |⑥-⑦-|
24
口口口口 |①---|
口⑥①⑤ |②-③-|
⑥④⑤口 |④-⑤-|
口②①③ |--⑥-|
25
口①①口 |----|
口口②口 |①---|
口口③口 |②--③|
口口④口 |--④-|
26
口口口③ |①---|
②⑥⑥⑥ |②-③-|
①口⑤① |--④-|
口口④口 |⑤-⑥-|
27
②口②② |--①-|
③口口口 |--②-|
口口口口 |③---|
①①④① |④---|
28
口③⑤④ |①---|
口②口① |②-③-|
口口②口 |----|
口口口口 |④-⑤-|
29
②口口口 |①---|
口④①③ |②-③-|
口①⑤口 |④--⑤|
口⑥口口 |--⑥-|
30
④④口③ |①---|
⑤⑤②口 |②---|
①②口口 |③-④-|
口口口口 |--⑤-|
31
口③③口 |①--②|
口口④② |--③-|
①①口② |----|
④口口口 |④---|
32
①口⑥⑤ |①---|
口口⑤口 |②-③-|
口⑤①口 |④---|
④②③口 |⑤-⑥-|
33
⑤⑤⑤⑤ |①--②|
①③口② |--③-|
①口③② |④---|
④④④④ |⑤---|
34
③口口⑤ |①---|
口②①① |②---|
①①②④ |③--④|
口口口口 |--⑤-|
35
口①口口 |①-②-|
②③④口 |③-④-|
①⑤⑥口 |⑤---|
⑤口口⑥ |⑥---|
36
①③③① |①---|
口②②口 |②-③-|
①④⑤① |--④-|
口口⑥口 |⑤-⑥-|
37
⑥③口口 |①--②|
⑤②①③ |--③-|
④口口② |--④-|
①①口口 |⑤-⑥-|
38
口口①① |①---|
口②①③ |②-③-|
口口口口
口口口口

⑤⑥⑥⑤
口口口口
口④④口 |--④-|
口口口口 |⑤-⑥-|
39
口⑤⑥口 |①--②|
口②②口 |--③-|
①④口① |--④-|
口③③口 |⑤-⑥-|
40
口口⑥口 |①---|
③⑤③④ |②-③-|
口口①口 |--④-|
②口口② |⑤-⑥-|
41
口①口① |①--②|
③④③④ |--③-|
②口②⑥ |④---|
口⑤口口 |⑤-⑥-|
42
②口③② |①---|
④②②口 |②---|
口①①⑤ |③-④-|
①⑥口① |⑤-⑥-|
43
①②口口 |①---|
口①②① |②-③-|
①③①口 |----|
口口③① |----|
44
⑩口①② |①②③④|
④③口⑨ |⑤⑥⑦⑧|
⑩⑪⑤⑥ |⑨--⑩|
⑧⑦⑪⑨ |--⑪-|
45
口口②口 |--①-|
口⑤③⑦ |②-③-|
④口⑥① |④-⑤-|
口口口口 |⑥-⑦-|
46
⑥口②⑥ |①---|
①⑤⑤口 |②---|
口④④② |③-④-|
口③③口 |⑤-⑥-|
47
口②口口 |--①-|
口口口③ |②-③-|
①口口口 |--④-|
口④④口 |----|
48
⑤口口④ |①-②-|
口⑥③口 |③-④-|
①②⑦⑧ |⑤-⑥-|
口口口口 |⑦-⑧-|
49
口③②⑦ |①-②-|
④④④① |③-④-|
⑥口口⑤ |--⑤-|
口口口口 |⑥-⑦-|
50
①口口⑥ |①-②-|
口④⑤③ |③-④-|
口口②口 |--⑤-|
口口①口 |⑥---|
51
口①④口 |①--②|
④③⑥① |--③-|
②⑥③⑤ |④--⑤|
口⑤②口 |--⑥-|
52
④口口口 |----|
口口③⑤ |①---|
①口①口 |②-③-|
①②①口 |④--⑤|
53
⑤口口② |--①-|
③口口⑥ |②--③|
①口口④ |--④-|
口口口口 |⑤--⑥|
54
口④口⑤ |--①②|
⑥口口口 |③--④|
①②③⑦ |--⑤-|
口口口口 |⑥--⑦|
55
口口口口 |--①-|
口③④⑥ |②-③-|
①⑤口口 |④-⑤-|
⑤⑤②口 |--⑥-|
56
口口④① |①-②③|
⑥③⑥⑥ |④---|
②口⑤⑤ |⑤---|
口口口口 |⑥---|
57
①②①① |①-②-|
口⑤⑤口 |③--④|
⑥④⑦③ |--⑤-|
⑥④⑦③ |⑥--⑦|
58
②②②② |--①-|
①口口① |②---|
口⑤口口 |③---|
③口④③ |④-⑤-|
59
口②口③ |①-②-|
⑥口①⑥ |③-④-|
④⑥⑥⑤ |⑤---|
④口口⑤ |⑥---|
60
①口口① |①---|
口①①口 |②-③-|
口口口口
②③口口

口口口口
⑤⑥⑦口
口口口口 |④-⑤-|
口口④口 |⑥-⑦-|
61
口①②口 |①-②-|
口口口口 |③-④-|
③④⑤口 |⑤-⑥-|
⑥⑦⑧口 |⑦-⑧-|
62
③④⑤口 |①-②-|
口①②口 |③-④-|
⑥⑦⑧口 |⑤-⑥-|
口口口口 |⑦-⑧-|
63
口口口口 |①-②-|
③③④④ |③-④-|
口口口口
口①②口

⑤⑤⑥⑥
口口口口
⑦口口⑦ |⑤-⑥-|
口⑦⑦口 |--⑦-|
64
④口口口 |--①-|
⑤口口② |②--③|
⑥③口口 |--④⑤|
①口口① |⑥---|
65
口口口① |--①-|
④②⑤⑤ |②--③|
⑤⑤③② |--④-|
③口④口 |⑤---|
66
口口②⑤ |①-②-|
④①④④ |③---|
口口口⑥ |④---|
③③口③ |⑤-⑥-|
67
①⑤⑥口 |①-②-|
口③④口 |③-④-|
②⑦口口 |⑤-⑥-|
⑦口口口 |⑦---|
68
②④④② |①---|
口③③口 |②---|
②⑤①② |③-④-|
口口口① |--⑤-|
69
口⑤口口 |①-②-|
口④③⑤ |③--④|
⑥口①④ |--⑤-|
③③②口 |--⑥-|
70
②口③③ |①-②-|
①④③⑤ |③---|
口⑥⑥口 |④-⑤-|
口口口⑤ |--⑥-|
71
①②②① |①-②-|
口④④口 |③--④|
③⑥口③ |--⑤-|
口⑤⑤口 |--⑥-|
72
口①②口 |①-②-|
⑤口⑤⑥ |③---|
口口③口 |④-⑤-|
④口口④ |--⑥-|
73
口③②③ |①-②-|
口①口口 |③--④|
④口④口
口口口口

口口口口
⑤⑥⑤⑥
口口口口 |--⑤-|
口口口口 |⑥---|
74
④口⑤④ |①-②-|
⑥④④口 |③---|
口③③② |④---|
③①口③ |⑤-⑥-|
75
③口口口 |①-②-|
口③口③ |③---|
③口③①
口②口③

口④口口
④口口口
口口口④ |----|
口口口口 |④---|
76
口口①口 |①---|
口口口① |②---|
①②②口
②口口②

③口④③
⑤③③口
口口口口 |③---|
口口口口 |④-⑤-|
77
③口口口 |①-②-|
口③口③ |③--④|
③口③①
④②口③

口口口口
口口⑤口
口口口⑥ |--⑤-|
口口口口 |--⑥-|
78
口①口口 |①-②-|
⑦②口④ |③--④|
口口口口 |--⑤-|
③口⑤⑥ |⑥--⑦|
79
口口口口 |--①-|
口④口口 |②--③|
②⑤③⑥ |--④-|
口①口口 |⑤--⑥|
80
④④④④ |--①-|
③⑤①口 |②-③-|
口口②⑥ |④---|
口口口口 |⑤-⑥-|
81
⑨口⑧⑧ |①-②-|
口⑤口口 |③-④-|
①口⑥口 |⑤⑥⑦-|
③⑦②④ |⑧-⑨-|
82
⑧口⑦⑦ |--①-|
口④口口 |②-③-|
口口⑤① |④⑤⑥-|
②⑥口③ |⑦-⑧-|
83
口⑦⑥⑤ |--①-|
②③④⑤ |②-③-|
②口口① |④-⑤-|
口口口口 |⑥-⑦-|
84
口口口口 |①-②-|
口口口口 |----|
②①①② |----|
②口口② |----|

不確定度: 0

最終更新:2017年09月06日 23:06