恋のメリーゴーランド
森野くま子

BASIC

Level: 5
BPM: 195
Notes: 333

1
口口口口 |----|
口口口口 |----|
口口口口 |----|
口口口口 |----|
2
口口口口 |①---|
口①口口 |----|
口口②口 |②---|
口口口口 |----|
3
口③口口 |①---|
口口②口 |----|
口①口口 |②---|
口口口口 |③---|
4
②口③口 |①---|
①口口④ |----|
口口口口 |②---|
口口口口 |③-④-|
5
口口口口 |--①-|
口②①口 |--②-|
口口口口 |----|
口口口口 |----|
6
口口口口 |①---|
口②口口 |----|
口口①口 |②---|
口口口口 |----|
7
口口口口 |①---|
口口①口 |----|
口②口口 |②---|
口口③口 |③---|
8
口口口口 |①---|
口④④口 |②---|
②③③① |③---|
口口口口 |④---|
9
口口口口 |----|
口口口口 |----|
口口口口 |----|
口口口口 |----|
10
①口口口 |--①-|
口②口口 |----|
口口口口 |--②-|
口口口口 |----|
11
口口口口 |--①-|
口口口口 |----|
口②①口 |--②-|
口口口口 |----|
12
口口口② |--①-|
口口①口 |----|
口口口口 |--②-|
口口口口 |----|
13
口口①口 |①---|
口②口口 |②---|
口口③口 |③---|
口④口口 |④---|
14
口口口口 |--①-|
口口口口 |----|
口口②口 |--②-|
口口口① |----|
15
口口口口 |--①-|
口①②口 |----|
口口口口 |--②-|
口口口口 |----|
16
口口口口 |--①-|
口口口口 |----|
口①口口 |--②-|
②口口口 |----|
17
口口口口 |①---|
口②②口 |②---|
口①①口 |----|
口口口口 |----|
18
①口口口 |--①-|
口②口口 |----|
口口口口 |--②-|
口口口口 |----|
19
口口口口 |--①-|
口口口口 |----|
口②①口 |--②-|
口口口口 |----|
20
口口口② |--①-|
口口①口 |----|
口口口口 |--②-|
口口口口 |----|
21
口①①口 |①---|
口②②口 |②---|
口口口口 |--③-|
口口口③ |----|
22
口口口口 |--①-|
口②口口 |----|
口口①口 |--②-|
口口口口 |----|
23
口口口口 |--①-|
口口①口 |----|
口②口口 |--②-|
口口口口 |----|
24
口口口口 |--①-|
口口口口 |----|
口口口口 |--②-|
①口②口 |----|
25
口口口口 |①---|
口②②口 |②---|
口①①口 |----|
口口口口 |----|
26
口口口① |①---|
口口口② |----|
口口口口 |②---|
口口口口 |----|
27
口口口口 |①---|
口口口口 |----|
口口口① |②---|
口③口② |③---|
28
口③④口 |①---|
口②口口 |②---|
口口①口 |③---|
口口口口 |④---|
29
口口口口 |①---|
口口①口 |②-③-|
口口②口 |----|
口③口口 |----|
30
口口口口 |①---|
口口口口 |----|
②口口口 |②---|
①口口口 |----|
31
②口口口 |①---|
①口口口 |----|
口口口口 |②---|
口口口口 |----|
32
口①①口 |①---|
口口口口 |----|
口口口口 |----|
口口口口 |----|
33
口口口口 |----|
口口口口 |----|
口口口口 |--①-|
口①①口 |----|
34
口②②口 |①---|
口①①口 |--②-|
口口口口 |----|
口口口口 |----|
35
口③口口 |--①-|
④口②口 |②-③-|
口①口口 |----|
口口口口 |④---|
36
口口口口 |①---|
口口口① |②-③-|
③口②④ |--④-|
口⑤⑤口 |--⑤-|
37
口②②口 |--①-|
口口口口 |--②-|
口①①口 |----|
口口口口 |----|
38
①②口口 |①---|
口口③④ |②-③-|
口⑤⑤口 |--④-|
口口口口 |--⑤-|
39
口口口口 |--①-|
③口口口 |--②-|
①口口② |----|
口口口口 |③---|
40
口口口口 |①---|
口口口① |②-③-|
③口②④ |--④-|
口⑤⑤口 |--⑤-|
41
口②②口 |--①-|
口口口口 |--②-|
口①①口 |----|
口口口口 |----|
42
①口口口 |①---|
口②②口 |----|
口口口口 |②---|
口口口口 |----|
43
口口口口 |①---|
③口口① |--②-|
口②口② |----|
口口口口 |③---|
44
口口口口 |①---|
口口口① |②-③-|
③口②④ |--④-|
口⑤⑤口 |--⑤-|
45
口②②口 |--①-|
口口口口 |--②-|
口①①口 |----|
口口口口 |----|
46
①②口口 |①---|
口口③④ |②-③-|
口⑤⑤口 |--④-|
口口口口 |--⑤-|
47
口口口口 |--①-|
③口口口 |--②-|
②口口① |----|
口口口口 |③---|
48
口口口口 |①---|
口口口① |②-③-|
③口②④ |--④-|
口⑤⑤口 |--⑤-|
49
口②②口 |----|
口口口口 |----|
口①①口 |①---|
口口口口 |②---|
50
①口口口 |①---|
口②②口 |----|
口口口口 |②---|
口口口口 |----|
51
口口口口 |①---|
口口口① |--②-|
口②口② |----|
口口口口 |----|
52
口口口口 |--①-|
口口口口 |----|
口口口② |-②----|
口①③口 |--③---|
53
⑤①①⑤ |--①-|
④②②④ |②-③-|
口③③口 |④---|
口口口口 |⑤---|
54
口①口口 |①---|
④④②口 |--②-|
口口③口 |--③-|
口口口口 |--④-|
55
口口口口 |--①-|
口口口口 |----|
①①口口 |----|
口口口口 |----|
56
口口口口 |①---|
口口④④ |--②-|
口②③③ |--③-|
①口口口 |--④-|
57
口口①① |--①-|
口口口口 |----|
③口口③ |②---|
口②②口 |③---|
58
①口口口 |①---|
口②口口 |--②-|
口③④④ |--③-|
口口口口 |--④-|
59
口口口口 |--①-|
口口①① |----|
口口口口 |----|
口口口口 |----|
60
口口口口 |①---|
④④③口 |--②-|
口口②口 |--③-|
口口口① |--④-|
61
①①口口 |--①-|
②口口口 |----|
口口口口 |----|
口口口口 |②---|
62
口口口口 |①---|
口⑤⑤① |②-③-|
③口②④ |--④-|
口口口口 |--⑤-|
63
口口口口 |----|
①口口② |----|
口口口口 |①---|
口口口口 |②---|
64
①②口口 |①---|
口口③④ |②-③-|
口⑤⑤口 |--④-|
口口口口 |--⑤-|
65
口口口口 |--①-|
③口口口 |--②-|
①口口② |----|
口口口口 |③---|
66
口口口口 |①---|
口口口① |②-③-|
③口②④ |--④-|
口⑤⑤口 |--⑤-|
67
口口口口 |--①-|
口①②口 |--②-|
④口口④ |③---|
③口口③ |④---|
68
口口口口 |①---|
①口口① |----|
口口口口 |②---|
口②②口 |----|
69
口②②口 |①---|
③口口口 |--②-|
口①①口 |----|
口口口口 |③---|
70
口③口口 |①---|
④口②口 |②-③-|
口①口口 |--④-|
口⑤⑤口 |--⑤-|
71
口口③口 |--①-|
口口口④ |--②-|
①口口② |③---|
口口口口 |④---|
72
口口口口 |①---|
口⑤口口 |②-③-|
④②①口 |--④-|
口③口口 |--⑤-|
73
口口口口 |--①-|
③口口口 |--②-|
口①②口 |----|
口口口口 |③---|
74
口③口口 |①---|
④口②口 |②-③-|
口①口口 |--④-|
口⑤⑤口 |--⑤-|
75
口口口口 |--①-|
口口口口 |--②-|
②口口① |----|
口口口口 |----|
76
①口口口 |①---|
口②②口 |----|
口口口口 |②---|
口口口口 |----|
77
口口口口 |①---|
口口口① |----|
口②口② |②---|
口口口口 |----|
78
口口口口 |----|
口口口口 |①---|
口口①口 |---②-③|
口②口③ |----|
79
⑤①①⑤ |--①-|
④②②④ |②-③-|
口③③口 |④---|
口口口口 |⑤---|
80
口①口口 |①---|
④④②口 |--②-|
口口③口 |--③-|
口口口口 |--④-|
81
口口口口 |--①-|
口口口口 |----|
①①口口 |----|
口口口口 |----|
82
口口口口 |①---|
口口④④ |--②-|
口②③③ |--③-|
①口口口 |--④-|
83
口口①① |--①-|
口口口口 |----|
③口口③ |②---|
口②②口 |③---|
84
①口口口 |①---|
口②口口 |--②-|
口③④④ |--③-|
口口口口 |--④-|
85
口口口口 |--①-|
口口①① |----|
口口口口 |----|
口口口口 |----|
86
①口口口 |①---|
口②口口 |--②-|
口③④④ |--③-|
口口口口 |--④-|
87
口口口口 |--①-|
口口①① |----|
口口口口 |----|
口口口口 |----|
88
②口口口 |①---|
口③③④ |--②-|
口口口口 |--③-|
①①口口 |--④-|
89
口口口口 |--①-|
口口口口 |----|
口①口① |----|
口口口口 |----|


不确定度: 0

最終更新:2012年11月11日 16:39