In The Ruins
good-cool feat. CHiCO

BASIC

Level: 5
BPM: 156
Notes: 412

1
口口口口 |----|
口口口口 |----|
口口口口 |----|
口口口口 |----|
2
口口口口 |----|
口口口口 |----|
口口口口 |----|
口口口口 |----|
3
口口口口 |①---|
①②③④ |②---|
口口口口 |③---|
口口口口 |④---|
4
口口口口 |①---|
口口口口 |②---|
④③②① |③---|
口口口口 |④---|
5
口口口口 |①---|
口口口口 |②---|
口口口口 |③---|
①②③④ |④---|
6
口口口口 |①---|
口①①口 |----|
口口口口 |----|
口②②口 |②---|
7
⑥口口⑥ |①-②-|
②口口① |③-④-|
④口口③ |⑤---|
口⑤⑤口 |⑥---|
8
口口口口 |①-②-|
②口口① |③-④-|
④⑦⑦③ |⑤-⑥-|
⑥口口⑤ |⑦---|
9
口①①口 |①---|
口②②口 |②---|
口③③口 |③---|
口④④口 |④---|
10
口口口口 |①-②-|
②口口① |③-④-|
④⑦⑦③ |⑤-⑥-|
⑥口口⑤ |⑦---|
11
①③③① |①---|
口口口口 |----|
②口口② |②---|
口口口口 |③---|
12
口口口口 |①-②-|
①口口② |③-④-|
③⑦⑦④ |⑤-⑥-|
⑤口口⑥ |⑦---|
13
口①①口 |①---|
口②②口 |②---|
口③③口 |③---|
口④④口 |④---|
14
口口口口 |①-②-|
①口口② |③-④-|
③⑦⑦④ |⑤-⑥-|
⑤口口⑥ |⑦---|
15
④①①④ |①---|
口口口口 |②-③-|
③口口③ |--④-|
口②②口 |----|
16
口口口口 |①---|
①②③口 |②---|
口口口口 |③---|
口口口口 |----|
17
口口口口 |①---|
口口口口 |②---|
④③②① |③---|
口口口口 |④---|
18
口②②口 |①---|
口①①口 |②---|
口口口口 |----|
口口口口 |----|
19
口口口口 |①---|
口③①口 |②---|
口④②口 |③---|
口口口口 |④---|
20
口口口口 |①---|
口③②① |②---|
口口口口 |③---|
口口口口 |----|
21
口口口口 |①---|
口口口口 |②---|
①②③④ |③---|
口口口口 |④---|
22
口②②口 |①---|
口①①口 |②---|
口口口口 |----|
口口口口 |----|
23
口口口口 |①---|
口①③口 |②---|
口②④口 |③---|
口口口口 |④---|
24
口口口口 |①---|
①口口③ |②---|
②口口④ |③---|
口口口口 |④---|
25
口②②口 |①---|
口口口口 |②---|
口口口口
口①①口

口口口口
口口口口
口口口口 |----|
口③③口 |③---|
26
②④④② |①---|
口口口口 |②---|
①③③① |③---|
口口口口 |④---|
27
④④④④ |①---|
③口口③ |②---|
②口口② |③---|
①口口① |④---|
28
口口口口 |----|
口口①口 |①---|
口口②口 |②---|
口口③口 |③---|
29
口口口口 |①---|
口③口口 |②---|
口②口口 |③---|
口①口口 |----|
30
口口口口 |①---|
口口口口 |②---|
④③②① |③---|
口口口口 |④---|
31
③③③③ |①---|
口①①口 |--②-|
口口口口 |--③-|
口②②口 |----|
32
⑦⑦⑦⑦ |①-②-|
②口口① |③-④-|
④口口③ |⑤-⑥-|
⑥口口⑤ |⑦---|
33
口口口口 |①-②-|
口②①口 |③-④-|
口④③口 |⑤-⑥-|
口⑥⑤口 |----|
34
②口口① |①-②-|
④口口③ |③-④-|
⑥口口⑤ |⑤-⑥-|
⑧口口⑦ |⑦-⑧-|
35
口④④口 |①---|
口③③口 |②---|
口②②口 |③---|
口①①口 |④---|
36
⑦⑦⑦⑦ |①-②-|
①口口② |③-④-|
③口口④ |⑤-⑥-|
⑤口口⑥ |⑦---|
37
口口口口 |①-②-|
口①②口 |③-④-|
口③④口 |⑤-⑥-|
口⑤⑥口 |----|
38
①口口② |①-②-|
③口口④ |③-④-|
⑤口口⑥ |⑤-⑥-|
⑦口口⑧ |⑦-⑧-|
39
③③③③ |①---|
口①①口 |--②-|
口口口口 |--③-|
口②②口 |----|
40
口口口口 |①---|
①②③④ |②---|
①②③④ |③---|
口口口口 |④---|
41
②口口② |①---|
口口口口 |--②-|
口口口口 |----|
口①①口 |----|
42
口口口口 |①---|
口①①口 |----|
口①①② |----|
口口口口 |②---|
43
口口口口 |①---|
口口口① |----|
②口口口 |----|
口口口口 |②---|
44
口②②口 |①---|
①口口口 |----|
口口口口 |----|
口口口口 |②---|
45
口口口口 |①---|
口①①口 |----|
口②②口 |----|
口口口口 |②---|
46
口口口口 |①---|
口①①口 |----|
②口口口 |----|
口口口口 |②---|
47
口口口口 |①---|
①口口口 |----|
口口口② |----|
口口口口 |②---|
48
口口口口 |①---|
口口口① |----|
口②②口 |----|
口口口口 |②---|
49
②口口② |①---|
口①①口 |--②-|
口口口口 |----|
口口口口 |----|
50
口口口口 |①---|
口口①① |--②-|
口口②② |----|
口口③③ |③---|
51
口口口口 |①---|
①①口口 |--②-|
②②口口 |----|
③③口口 |③---|
52
口①①口 |①---|
口口口口 |----|
口口口口 |----|
口口口口 |----|
53
口口口口 |①---|
①②③④ |②---|
①②③④ |③---|
口口口口 |④---|
54
口口口口 |①---|
①①口口 |--②-|
②②口口 |----|
③③口口 |③---|
55
口口口口 |①---|
口口①① |--②-|
口口②② |----|
口口③③ |③---|
56
①①①① |①---|
口口口口 |----|
口口口口 |----|
口口口口 |----|
57
口口口口 |①---|
④③②① |②---|
④③②① |③---|
口口口口 |④---|
58
口口口口 |①-②-|
口⑥⑤口 |③-④-|
⑦④③⑦ |⑤-⑥-|
口②①口 |⑦---|
59
①口口① |①---|
②口口② |②---|
③口口③ |③---|
④口口④ |④---|
60
口②①口 |①-②-|
口④③口 |③-④-|
口⑥⑤口 |⑤-⑥-|
口⑧⑦口 |⑦-⑧-|
61
①口口① |①---|
口口口口 |----|
口口口口
口口口口

③③③③
口口口口
口口口口 |②---|
②口口② |③---|
62
口口口口 |①-②-|
②口口① |③-④-|
④⑦⑦③ |⑤-⑥-|
⑥口口⑤ |⑦---|
63
口①①口 |①---|
口②②口 |②---|
口③③口 |③---|
口④④口 |④---|
64
②口口① |①-②-|
④口口③ |③-④-|
⑥口口⑤ |⑤-⑥-|
⑧口口⑦ |⑦-⑧-|
65
④①①④ |①---|
口口口口 |②-③-|
口③③口 |--④-|
口②②口 |----|
66
④口口④ |①---|
口口口口 |②-③-|
①③③① |--④-|
口②②口 |----|
67
④口口④ |①---|
口口口口 |②-③-|
①③③① |--④-|
口②②口 |----|
68
口口口口 |①---|
口口口口 |②---|
①②③④ |③---|
口口口口 |④---|
69
口口口口 |①---|
口口口口 |②---|
口口口口 |③---|
④③②① |④---|
70
①口口① |①--②|
②口口② |--③-|
③口口③ |-④--|
④⑤⑤④ |⑤---|
71
①①①① |①---|
口口口口 |----|
口口口口 |----|
口口口口 |----|

不確定度: 0

最終更新:2017年09月06日 23:05