In The Ruins
good-cool feat. CHiCO

EXTREME

Level: 10
BPM: 156
Notes: 767

1
口口口口 |----|
口口口口 |----|
口口口口 |----|
口口口口 |----|
2
口口口口 |----|
口口口口 |----|
口口口口 |----|
口口口口 |----|
3
①口④口 |①-②-|
⑥口⑦② |③-④-|
口③口⑧ |⑤-⑥-|
口⑤口口 |⑦-⑧-|
4
③⑧⑥口 |①-②-|
口口口② |③-④-|
⑤⑦口口 |⑤-⑥-|
①口④口 |⑦-⑧-|
5
口⑦口③ |①-②-|
口口⑤① |③-④-|
⑥口口口 |⑤-⑥-|
②④口⑧ |⑦-⑧-|
6
①口口① |①---|
口口口口 |----|
口口口口 |----|
口②②口 |②---|
7
①⑬⑬③ |①-②-|
口②④口 |③-④-|
⑤⑥⑦⑧ |⑤⑥⑦⑧⑨⑩⑪⑫|
⑫⑪⑩⑨ |⑬---|
8
①口口⑤ |①-②-|
⑫⑪⑩② |③-④⑤|
③⑨⑧口 |-⑥⑦⑧|
口⑦⑥④ |⑨⑩⑪⑫|
9
③⑤⑦口 |①-②③|
口⑧⑨① |-④⑤-|
口⑩⑪① |⑥⑦--|
②④⑥口 |⑧⑨⑩⑪|
10
①口⑫⑤ |①-②-|
口⑪⑩② |③-④⑤|
③⑨⑧口 |-⑥⑦⑧|
口⑦⑥④ |⑨⑩⑪⑫|
11
②①口③ |①---|
④口口⑤ |②③④⑤|
口口口口
口口口口

口⑩⑩口
口口口口
口⑧⑨口 |⑥⑦⑧⑨|
口⑥⑦口 |⑩---|
12
①口口⑤ |①-②-|
⑫⑪⑩② |③-④⑤|
③⑨⑧口 |-⑥⑦⑧|
口⑦⑥④ |⑨⑩⑪⑫|
13
③⑤⑦口 |①-②③|
口⑧⑨① |-④⑤-|
口⑩⑪① |⑥⑦--|
②④⑥口 |⑧⑨⑩⑪|
14
①口⑫⑤ |①-②-|
口⑪⑩② |③-④⑤|
③⑨⑧口 |-⑥⑦⑧|
口⑦⑥④ |⑨⑩⑪⑫|
15
⑦⑧⑧⑦ |①②③④|
①口口② |⑤⑥⑦-|
③⑧⑧④ |--⑧-|
⑤口口⑥ |----|
16
口口口口 |①-②-|
③口口口 |③---|
口口口①
③口②口

口⑥⑤④
口口口口
口⑤④⑥ |④-⑤-|
口口口口 |--⑥-|
17
口口口口 |--①-|
①②口口 |②---|
口③④口 |③---|
④①②③ |④---|
18
②口口③ |①---|
口口口口 |②-③-|
③口口②
口①①口

口⑦口口
口口⑥口
口⑤口口 |----|
口口④口 |④⑤⑥⑦|
19
②⑯①⑮ |①②③④|
⑫⑧⑪⑦ |⑤⑥⑦⑧|
④⑭③⑬ |⑨⑩⑪⑫|
⑩⑥⑨⑤ |⑬⑭⑮⑯|
20
口口口口 |①-②-|
口口口③ |③---|
①口口口
口②口③

④⑤⑥口
口口口口
⑥④⑤口 |④-⑤-|
口口口口 |--⑥-|
21
口口口口 |--①-|
口口②① |②---|
口④③口 |③---|
③②①④ |④---|
22
③口口② |①---|
口口口口 |②-③-|
②口口③
口①①口

口口⑦口
口⑥口口
口口⑤口 |----|
口④口口 |④⑤⑥⑦|
23
⑮①⑯② |①②③④|
⑦⑪⑧⑫ |⑤⑥⑦⑧|
⑬③⑭④ |⑨⑩⑪⑫|
⑤⑨⑥⑩ |⑬⑭⑮⑯|
24
口口④口 |①-②-|
②口⑤④ |--③-|
口①口③ |--④-|
口⑤③口 |--⑤-|
25
③①口② |--①-|
①口口口 |----|
口口口口 |--②-|
②口口③ |③---|
26
⑥③③⑥ |①-②-|
口口口口 |③---|
①⑤⑤① |④-⑤-|
④②②④ |⑥---|
27
⑤口⑦⑤ |①-②-|
⑤⑥⑦③ |③-④-|
③④⑦① |⑤-⑥-|
③②口口 |⑦---|
28
⑥口⑤⑥ |①---|
口口口口 |②-③-|
口④口③ |④-⑤-|
②①①口 |--⑥-|
29
⑤口口⑤ |--①-|
口口口口 |②---|
①④④② |③---|
③①②③ |④-⑤-|
30
④④①口 |--①-|
口②口口 |②---|
①⑤⑤口 |③-④-|
③③口② |--⑤-|
31
⑧⑦口⑧ |①②③④|
①③⑤① |⑤⑥⑦-|
⑦⑧⑧② |--⑧-|
⑥⑤④③ |----|
32
⑦⑦⑦⑦ |①-②-|
口③①⑤ |③-④-|
②④口⑤ |⑤-⑥-|
⑥⑥③① |⑦---|
33
⑦⑥⑥⑦ |①-②-|
②⑤④③ |③-④-|
⑤②③④ |⑤-⑥-|
口口①① |--⑦-|
34
口口④口 |----|
②③口口 |①---|
③②口④ |②-③-|
口①①口 |--④-|
35
口口口口 |①-②-|
④口②① |③-④-|
口口③口
口④②口

⑥⑥口⑦
口口口⑧
⑤口口⑨ |⑤-⑥-|
口口口⑩ |⑦⑧⑨⑩|
36
⑦⑦⑦⑦ |①-②-|
⑤①③口 |③-④-|
⑤②④口 |⑤-⑥-|
①③⑥⑥ |⑦---|
37
⑦⑥⑥⑦ |①-②-|
④③②⑤ |③-④-|
③④⑤② |⑤-⑥-|
①①口口 |--⑦-|
38
口口口口 |----|
口⑤④③ |①---|
口②③口 |②-③-|
②①①口 |--④⑤|
39
②④①① |①-②-|
①⑤⑤④ |③-④-|
③⑤⑤④ |--⑤-|
口口②② |----|
40
④②②④ |①-②-|
口口口口 |③-④-|
口口口口
③①①③

口口口口
⑦⑧⑥⑤
⑦⑧⑥⑤ |⑤⑥-⑦|
口⑨⑨口 |⑧-⑨-|
41
③①①③ |①--②|
③口口③ |--③-|
口口口口 |----|
②口口② |----|
42
口口口口 |①---|
口①①③ |--②-|
②①①口 |----|
口口口口 |③---|
43
口口口① |①---|
口口口口 |--②-|
口②口口 |----|
口口③口 |③---|
44
①①口口 |①---|
口口口③ |--②-|
②口①口 |----|
口口口口 |③---|
45
口口口口 |①---|
口②口口 |--②-|
③口口① |----|
口口口口 |③---|
46
口口①① |①---|
③口口② |--②-|
口①口口 |----|
口口口口 |③---|
47
①口口口 |①---|
口口口口 |--②-|
口口②口 |----|
口③口口 |③---|
48
口口①① |①---|
③口口口 |--②-|
口①口② |----|
口口口口 |③---|
49
③③③③ |①--②|
口②①口 |--③-|
口口口口 |----|
①口口② |----|
50
口口口② |①-②-|
①①口④ |③-④-|
口口③口
④④①口

⑦⑦口口
口口⑦口
口口口⑥ |⑤-⑥-|
口口⑧⑤ |⑦-⑧-|
51
口口口① |①-②-|
①①口④ |③-④-|
④④②口
口口口③

口口⑤⑦
⑦⑦⑧口
口口口⑥ |⑤-⑥-|
口口口口 |⑦-⑧-|
52
①①⑦⑧ |①-②-|
口口⑥② |③-④-|
口口④⑤ |⑤-⑥-|
口口③① |⑦-⑧-|
53
口口口口 |①-②-|
③④口口 |③-④-|
④③口口
②②①①

口⑦⑦口
口口⑤⑥
口口⑥⑤ |⑤-⑥-|
口⑧⑧口 |⑦-⑧-|
54
①口口① |①-②-|
④口口口 |③-④-|
口③④④
②口口口

⑧⑤⑦⑦
口⑦口口
⑥口口口 |⑤-⑥-|
口口口口 |⑦-⑧-|
55
口口口口 |①-②-|
④口①① |③-④-|
口①口口
②③④④

⑦⑥口口
口⑧口口
⑤⑦⑦口 |⑤-⑥-|
口口口口 |⑦-⑧-|
56
口口①① |①-②-|
④口口③ |③-④-|
③口口④
①①②②

⑦⑦⑧⑧
口⑥⑤口
口⑤⑥口 |⑤-⑥-|
口口口口 |⑦-⑧-|
57
⑬⑭⑯⑮ |①②③④|
②⑩⑫④ |⑤⑥⑦⑧|
①⑨⑪③ |⑨⑩⑪⑫|
⑤⑥⑧⑦ |⑬⑭⑮⑯|
58
口口口口 |①②③④|
④口口② |⑤⑥⑦⑧|
③口口①
⑧⑦⑥⑤

口⑨⑩⑪
口口口⑫
口⑮⑭⑬ |-⑨⑩⑪|
口口口口 |⑫⑬⑭⑮|
59
③⑤口口 |①-②③|
①①①口 |-④⑤-|
口口口口
②④口口

口口⑦口
口⑧⑨口
口⑩⑪口 |⑥⑦--|
口口⑥口 |⑧⑨⑩⑪|
60
口口口口 |①②③④|
④口口② |⑤⑥⑦⑧|
③口口①
⑧⑦⑥⑤

口⑪口⑩
口⑬⑭⑮
口⑨口⑫ |-⑨⑩⑪|
口口口口 |⑫⑬⑭⑮|
61
①口口口 |①---|
①口口口 |②③④⑤|
①②③口
口④⑤口

⑩⑪⑪⑩
口⑧⑨口
口口口口 |⑥⑦⑧⑨|
⑥口口⑦ |⑩-⑪-|
62
口口口口 |①②③④|
④口口② |⑤⑥⑦⑧|
③口口①
⑧⑦⑥⑤

口⑨⑩⑪
口口口⑫
口⑮⑭⑬ |-⑨⑩⑪|
口口口口 |⑫⑬⑭⑮|
63
③⑤口口 |①-②③|
①①①口 |-④⑤-|
口口口口
②④口口

口口⑦口
口⑧⑨口
口⑩⑪口 |⑥⑦--|
口口⑥口 |⑧⑨⑩⑪|
64
口口口口 |①②③④|
④口口② |⑤⑥⑦⑧|
③口口①
⑧⑦⑥⑤

口⑪口⑩
口⑬⑭⑮
口⑨口⑫ |-⑨⑩⑪|
口口口口 |⑫⑬⑭⑮|
65
⑧⑦⑧⑦ |①②③④|
⑥⑩⑨口 |⑤⑥⑦-|
⑤⑧⑦口 |--⑧-|
④③②① |--⑨⑩|
66
⑦⑧⑦⑧ |①②③④|
口⑨⑩⑥ |⑤⑥⑦-|
口⑦⑧⑤ |--⑧-|
①②③④ |--⑨⑩|
67
⑧⑦⑧⑦ |①②③④|
⑥口口口 |⑤⑥⑦-|
⑤⑧⑦口 |--⑧-|
④③②① |----|
68
口口④口 |①-②-|
口①①② |③-④-|
口口③口
口口口口

口口口口
⑥口⑦口
口口口⑧ |⑤-⑥-|
口⑤口口 |⑦-⑧-|
69
⑦③口⑦ |①-②-|
口口口② |③-④-|
⑤口口口 |⑤-⑥-|
①口④⑥ |⑦---|
70
口⑤⑥口 |①②-③|
③①②④ |④-⑤⑥|
④②①③
口⑥⑤口

⑦口口⑧
口⑩⑨口
口⑫⑪口 |-⑦⑧-|
⑧口口⑦ |⑨⑩⑪⑫|
71
口口口口 |①---|
①口口① |----|
①口口① |----|
口口口口 |----|

不確定度: 0

最終更新:2017年09月06日 23:05