EXUSIA
L.E.D.-G

BASIC

Level: 4
BPM: 188
Notes: 357

1
口口口口 |----|
口口口口 |----|
口口口口 |----|
口口口口 |----|
2
口④④口 |①---|
口①②③ |②---|
口口口口 |③---|
口口口口 |④---|
3
口口口口 |①---|
①口口口 |----|
②口口口 |②---|
口口口口 |----|
4
口口口口 |①---|
口①口口 |----|
口②口口 |②---|
口口口口 |----|
5
口口口口 |①---|
口口①口 |----|
口口②口 |②---|
口口口口 |----|
6
口口口口 |①---|
口③③① |----|
口口口② |②---|
口口口口 |③---|
7
口口口口 |①---|
口口口口 |----|
①口口口 |②---|
②口口口 |----|
8
口口口口 |①---|
口口口口 |----|
口①口口 |②---|
口②口口 |----|
9
口口口口 |①---|
口口口口 |----|
口口①口 |②---|
口口②口 |----|
10
口口口口 |①---|
口③③口 |----|
口口口① |②---|
口口口② |③---|
11
①②③口 |①---|
口口口口 |②---|
口口口口 |③---|
口口口口 |----|
12
口口口口 |①---|
口③②① |②---|
口口口口 |③---|
口口口口 |----|
13
口口口口 |①---|
口口口口 |②---|
①②③口 |③---|
口口口口 |----|
14
口口口口 |①---|
口口口口 |②---|
口口口口 |③---|
口③②① |----|
15
①②③口 |①---|
口口口口 |②---|
口口口口 |③---|
口口口口 |----|
16
口口口口 |①---|
口③②① |②---|
口口口口 |③---|
口口口口 |----|
17
口口口口 |①---|
口口口口 |②---|
①②③口 |③---|
口口口口 |----|
18
口口口口 |①---|
口口口口 |②---|
口口口口 |③---|
口③②① |----|
19
口②③口 |①---|
口口口① |②-③-|
口④④口 |----|
口口口口 |④---|
20
口口口口 |----|
口口口口 |----|
口口口口 |----|
口口口口 |----|
21
口③②口 |①---|
①口口口 |②-③-|
口④④口 |----|
口口口口 |④---|
22
口口口口 |----|
口②②口 |----|
口口口口 |①---|
口①①口 |②---|
23
口②③口 |①---|
口口口① |②-③-|
口④④口 |----|
口口口口 |④---|
24
口口口口 |----|
口口口口 |----|
口口口口 |----|
口口口口 |----|
25
口③②口 |①---|
①口口口 |②-③-|
口④④口 |----|
口口口口 |④---|
26
口口口口 |----|
口②②口 |----|
口口口口 |①---|
口①①口 |②---|
27
①口口口 |①---|
②口口口 |②---|
③口口口 |③---|
④口口口 |④---|
28
口④口口 |①---|
口③口口 |②---|
口②口口 |③---|
口①口口 |④---|
29
口口①口 |①---|
口口②口 |②---|
口口③口 |③---|
口口④口 |④---|
30
口口口④ |①---|
口口口③ |②---|
口口口② |③---|
口口口① |④---|
31
①口口口 |①---|
②口口口 |②---|
③口口口 |③---|
④口口口 |④---|
32
口④口口 |①---|
口③口口 |②---|
口②口口 |③---|
口①口口 |④---|
33
口口①口 |①---|
口口②口 |②---|
口口③口 |③---|
口口④口 |④---|
34
口口口口 |①---|
③口口③ |--②-|
口②②口 |----|
①口口① |③---|
35
口①②口 |①---|
口③④口 |②---|
口口口口 |③---|
口口口口 |④---|
36
口口口口 |①---|
口口口口 |②---|
口①②口 |③---|
口③④口 |④---|
37
口口口口 |①---|
口口口口 |②---|
③口口④ |③---|
①口口② |④---|
38
③口口④ |①---|
①口口② |②---|
口口口口 |③---|
口口口口 |④---|
39
口①②口 |①---|
口③④口 |②---|
口口口口 |③---|
口口口口 |④---|
40
口口口口 |①---|
口口口口 |②---|
口①②口 |③---|
口③④口 |④---|
41
口口口口 |①---|
口口口口 |②---|
③口口④ |③---|
①口口② |④---|
42
口①①口 |①---|
②口口② |--②-|
口③③口 |----|
口口口口 |③---|
43
①口口① |①---|
口口口口 |----|
口口口口 |----|
口口口口 |----|
44
口口口口 |----|
口口口口 |----|
口口口口 |----|
口口口口 |----|
45
口①口口 |①---|
口②口口 |②---|
口口口口 |----|
口口口口 |----|
46
口口口口 |①---|
口口②口 |②---|
口口①口 |----|
口口口口 |----|
47
口口口口 |①---|
口①口口 |②---|
口②口口 |----|
口口口口 |----|
48
口口口口 |①---|
口口口口 |②---|
口口②口 |----|
口口①口 |----|
49
口口口口 |①---|
口②口口 |②---|
口①口口 |----|
口口口口 |----|
50
口口②口 |①---|
口口①口 |②---|
口口口口 |----|
口口口口 |----|
51
口口口口 |①---|
口①口口 |②---|
口②口口 |----|
口口口口 |----|
52
口口④口 |①---|
口口③口 |②---|
口口②口 |③---|
口口①口 |④---|
53
①口口① |①---|
口口口口 |----|
口口口口 |----|
口口口口 |----|
54
口口口口 |①---|
①口口① |----|
口口口口 |----|
口口口口 |----|
55
口口口口 |①---|
口口口口 |----|
①口口① |----|
口口口口 |----|
56
口口口口 |①---|
口口口口 |----|
口口口口 |----|
①口口① |----|
57
口口口口 |①---|
口口口口 |②---|
口④③口 |③---|
口②①口 |④---|
58
口④③口 |①---|
口②①口 |②---|
口口口口 |③---|
口口口口 |④---|
59
②口口① |①---|
④口口③ |②---|
口口口口 |③---|
口口口口 |④---|
60
口口口口 |①---|
口口口口 |②---|
②口口① |③---|
口③③口 |----|
61
口口口口 |①---|
口①①口 |----|
口口口口 |----|
口口口口 |----|
62
口口口口 |----|
口口口口 |----|
口口口口 |----|
口口口口 |----|
63
口③②口 |①---|
口口口口 |②-③-|
①口口口 |----|
口④④口 |④---|
64
口②③口 |①---|
口口口口 |②-③-|
口口口① |----|
口④④口 |④---|
65
口口口口 |①---|
②口口④ |②---|
①口口③ |③---|
口口口口 |④---|
66
口口口口 |①---|
口②④口 |②---|
口①③口 |③---|
口口口口 |④---|
67
口③②口 |①---|
口口口口 |②-③-|
①口口口 |----|
口④④口 |④---|
68
口②③口 |①---|
口口口口 |②-③-|
口口口① |----|
口④④口 |④---|
69
口口口口 |①---|
④口口② |②---|
③口口① |③---|
口口口口 |④---|
70
口口口口 |①---|
口④②口 |②---|
口③①口 |③---|
口口口口 |④---|
71
口②③口 |①---|
口口口口 |②-③-|
口口口① |----|
口④④口 |④---|
72
口③②口 |①---|
口口口口 |②-③-|
①口口口 |----|
口④④口 |④---|
73
③口口口 |①---|
②④④口 |②---|
①口口口 |③---|
口口口口 |④---|
74
口口口③ |①---|
口④④② |②---|
口口口① |③---|
口口口口 |④---|
75
口③②口 |①---|
口口口口 |②-③-|
①口口口 |----|
口④④口 |④---|
76
口②③口 |①---|
口口口口 |②-③-|
口口口① |----|
口④④口 |④---|
77
④②②④ |①---|
口口口口 |②---|
①③③① |③---|
口口口口 |④---|
78
④②②④ |①---|
口口口口 |②---|
①③③① |③---|
口口口口 |④---|
79
口②③口 |①---|
口口口口 |②-③-|
口口口① |----|
口④④口 |④---|
80
口③②口 |①---|
口口口口 |②-③-|
①口口口 |----|
口④④口 |④---|
81
口口口口 |①---|
④口口② |②---|
③口口① |③---|
口口口口 |④---|
82
口口口口 |①---|
口④②口 |②---|
口③①口 |③---|
口口口口 |④---|
83
口②③口 |①---|
口口口口 |②-③-|
口口口① |----|
口④④口 |④---|
84
口③②口 |①---|
口口口口 |②-③-|
①口口口 |----|
口④④口 |④---|
85
口口口口 |①---|
②口口④ |②---|
①口口③ |③---|
口口口口 |④---|
86
口口口口 |①---|
口②④口 |②---|
口①③口 |③---|
口口口口 |④---|
87
口③②口 |①---|
口口口口 |②-③-|
①口口口 |----|
口④④口 |④---|
88
口②③口 |①---|
口口口口 |②-③-|
口口口① |----|
口④④口 |④---|
89
口口口③ |①---|
口④④② |②---|
口口口① |③---|
口口口口 |④---|
90
③口口口 |①---|
②④④口 |②---|
①口口口 |③---|
口口口口 |④---|
91
口②③口 |①---|
口口口口 |②-③-|
口口口① |----|
口④④口 |④---|
92
口③②口 |①---|
口口口口 |②-③-|
①口口口 |----|
口④④口 |④---|
93
④②②④ |①---|
口口口口 |②---|
①③③① |③---|
口口口口 |④---|
94
④②②④ |①---|
口口口口 |②---|
①③③① |③---|
口口口口 |④---|
95
口口口口 |①---|
口①①口 |----|
口口口口 |----|
口口口口 |----|

不確定度: 0

最終更新:2017年09月06日 23:03