EXUSIA
L.E.D.-G

ADVANCED

Level: 8
BPM: 188
Notes: 722

1
口口口口 |----|
口口口口 |----|
口口口口 |----|
口口口口 |----|
2
⑧②口口 |①-②③|
口③口⑦ |④-⑤-|
⑥④口① |⑥-⑦-|
口口口⑤ |⑧---|
3
口口口口 |①-②-|
口口口口 |③---|
口⑥⑤④ |④-⑤-|
①②③口 |⑥---|
4
口⑥⑤④ |①-②-|
①②③口 |③---|
口口口口 |④-⑤-|
口口口口 |⑥---|
5
口③③口 |--①-|
②口口① |--②-|
②口口① |--③-|
口④④口 |④---|
6
口口口① |--①-|
口④①口 |--②-|
③②⑤口 |③-④-|
②口口口 |⑤---|
7
口③②① |①-②-|
④⑤⑥口 |③---|
口口口口 |④-⑤-|
口口口口 |⑥---|
8
口口口口 |①-②-|
口口口口 |③---|
口③②① |④-⑤-|
④⑤⑥口 |⑥---|
9
口④④口 |--①-|
①口口② |--②-|
①口口② |--③-|
口③③口 |④---|
10
口口⑤⑥ |--①-|
①②口口 |②-③-|
③④⑤⑥ |④-⑤-|
口口口口 |⑥---|
11
口①口口 |①-②-|
④口②口 |③---|
口⑥⑤口 |④-⑤-|
口③口口 |⑥---|
12
①口口口 |①-②-|
口口②⑥ |③---|
口口口⑤ |④-⑤-|
③口口④ |⑥---|
13
口①①口 |--①-|
③口口④ |--②-|
③口口④ |--③-|
口②②口 |④---|
14
④口口⑤ |--①-|
口②⑤口 |②-③-|
口⑥③口 |④-⑤-|
⑥口口① |⑥---|
15
口口①口 |①-②-|
②口口④ |③---|
⑤口口口 |④-⑤-|
口口⑥③ |⑥---|
16
口口①口 |①-②-|
⑥②口口 |③---|
⑤口口口 |④-⑤-|
④口口③ |⑥---|
17
口①①口 |--①-|
④口口③ |--②-|
④口口③ |--③-|
口②②口 |④---|
18
④③②① |--①-|
⑥口⑤口 |②-③-|
口⑥口⑤ |④-⑤-|
口口口口 |⑥---|
19
口口④口 |①-②-|
口③口⑦ |③-④-|
口口②⑥ |--⑤-|
口①口⑤ |⑥-⑦-|
20
口口口口 |--①-|
③④口口 |②---|
①②口口 |--③-|
口口口口 |④---|
21
口④口口 |①-②-|
⑦口③口 |③-④-|
⑥②口口 |--⑤-|
⑤口①口 |⑥-⑦-|
22
②②③③ |--①-|
口⑤⑥口 |②-③-|
口⑥⑤口 |④--⑤|
④④①① |--⑥-|
23
④口口口 |①-②-|
口⑦口③ |③-④-|
②⑥口口 |--⑤-|
口⑤口① |⑥-⑦-|
24
口口口口 |--①-|
口口④③ |②---|
口口②① |--③-|
口口口口 |④---|
25
口口口④ |①-②-|
③口⑦口 |③-④-|
口口⑥② |--⑤-|
①口⑤口 |⑥-⑦-|
26
②⑤口④ |①-②-|
⑤⑦口⑦ |③-④-|
⑦口⑦⑥ |⑤-⑥-|
①口⑥③ |⑦---|
27
②④①③ |①--②|
口口口口 |--③-|
口口⑥⑤ |-④--|
③①④② |⑤-⑥-|
28
②④①③ |①--②|
口口口口 |--③-|
⑤⑥口口 |-④--|
③①④② |⑤-⑥-|
29
①口②口 |①-②-|
⑤口口口 |-③--|
口口⑥口 |④--⑤|
口④口③ |--⑥-|
30
口②口口 |①--②|
⑥口口① |--③-|
口⑤口口 |-④--|
口③口④ |⑤-⑥-|
31
③①④② |①--②|
口口口口 |--③-|
⑤⑥口口 |-④--|
②④①③ |⑤-⑥-|
32
③①④② |①--②|
口口口口 |--③-|
口口⑥⑤ |-④--|
②④①③ |⑤-⑥-|
33
口口口⑤ |①-②-|
①②口口 |-③--|
④口⑥口 |④--⑤|
口口③口 |--⑥-|
34
口口②口 |①--②|
口口口② |--③-|
口①口口
①口③③

口④口口
口④口口
⑧⑦⑥⑤ |-④--|
口口口口 |⑤⑥⑦⑧|
35
②④①③ |①--②|
口口口口 |--③-|
口口⑥⑤ |-④--|
③①④② |⑤-⑥-|
36
②④①③ |①--②|
口口口口 |--③-|
⑤⑥口口 |-④--|
③①④② |⑤-⑥-|
37
①口②口 |①-②-|
⑤口口口 |-③--|
口口⑥口 |④--⑤|
口④口③ |--⑥-|
38
口②口口 |①--②|
⑥口口① |--③-|
口⑤口口 |-④--|
口③口④ |⑤-⑥-|
39
③①④② |①--②|
口口口口 |--③-|
⑤⑥口口 |-④--|
②④①③ |⑤-⑥-|
40
③①④② |①--②|
口口口口 |--③-|
口口⑥⑤ |-④--|
②④①③ |⑤-⑥-|
41
口口口⑤ |①-②-|
①②口口 |-③--|
④口⑥口 |④--⑤|
口口③口 |--⑥-|
42
口口②口 |①--②|
口口口② |--③-|
口①口口
①口③③

口④口口
⑥④⑤口
口⑥口⑤ |-④--|
口口口口 |⑤-⑥-|
43
口口①口 |①---|
口口口① |----|
①口口口 |----|
口①口口 |----|
44
口口口口 |----|
口口口口 |----|
口口口口 |----|
口口口口 |----|
45
口口口口 |①-②-|
口口口⑦ |③-④-|
⑥②①口 |--⑤-|
口④③⑤ |⑥-⑦-|
46
口③④口 |①-②-|
口①②口 |③-④-|
⑤口口口 |--⑤-|
口⑥口口 |⑥---|
47
口口口口 |①-②-|
口②①口 |③-④-|
口④③⑦ |--⑤-|
⑥口口⑤ |⑥-⑦-|
48
口①②口 |①-②-|
⑦③④口 |③-④-|
口口口⑥ |--⑤-|
⑤口口口 |⑥-⑦-|
49
口④口⑦ |①-②-|
⑥口③口 |③-④-|
口②口⑤ |--⑤-|
口口①口 |⑥-⑦-|
50
口口口口 |--①-|
口①口口 |②-③-|
口口②④ |--④-|
口③⑤口 |⑤---|
51
口①②口 |①-②-|
口③④⑦ |③-④-|
⑥口口口 |--⑤-|
口口口⑤ |⑥-⑦-|
52
⑧④口口 |①-②-|
口口③⑦ |③-④-|
⑥②口口 |⑤-⑥-|
口口①⑤ |⑦-⑧-|
53
口口①口 |①-②-|
⑦②口口 |③-④-|
口口③⑥ |--⑤-|
⑤④口口 |⑥-⑦-|
54
口④口口 |①-②-|
口口③口 |③-④-|
口②⑤口 |--⑤-|
口⑥①口 |⑥---|
55
①口口口 |①-②-|
口口②⑦ |③-④-|
⑥③口口 |--⑤-|
口口⑤④ |⑥-⑦-|
56
口口④口 |①-②-|
口③口⑦ |③-④-|
口⑥②口 |--⑤-|
口①口⑤ |⑥-⑦-|
57
⑦口⑧口 |①-②-|
⑤口⑥口 |③-④-|
③口④口 |⑤-⑥-|
①口②口 |⑦-⑧-|
58
口⑧口⑦ |①-②-|
口⑥口⑤ |③-④-|
口④口③ |⑤-⑥-|
口②口① |⑦-⑧-|
59
①口口⑧ |①-②-|
⑦口②口 |③-④-|
③口口⑥ |⑤-⑥-|
⑤口④口 |⑦-⑧-|
60
①口②口 |①-②-|
口③口③ |③---|
③口③口
口口口口

⑥⑥口口
口口口口
口口口口 |④--⑤|
④④⑤⑤ |--⑥-|
61
口口口口 |①---|
口口①口 |----|
口①口口 |----|
口口口口 |----|
62
口口口口 |----|
口口口口 |----|
口口口口 |----|
口口口口 |----|
63
②口①③ |①--②|
④⑤口口 |--③-|
口口口口 |----|
③①口② |④-⑤-|
64
口⑤②口 |①--②|
口口口口 |--③-|
口③⑥口 |④--⑤|
④口口① |--⑥-|
65
②④口口 |①--②|
口⑥口口 |--③-|
口口⑤口 |-④--|
口口③① |⑤-⑥-|
66
口口口① |①--②|
⑥口口② |--③-|
④口口⑤ |-④--|
③口口口 |⑤-⑥-|
67
③①②口 |①--②|
口口④口 |--③-|
口⑤口口 |----|
口②①③ |④-⑤-|
68
口口口口 |①--②|
④口口① |--③-|
口⑤②口 |④--⑤|
⑥口口③ |--⑥-|
69
①口口④ |①--②|
⑤口口② |--③-|
③口口⑥ |④--⑤|
口口口口 |--⑥-|
70
①⑤口④ |①--②|
⑤口④② |--③-|
③口口⑥ |④--⑤|
口口⑥口 |--⑥-|
71
②口①③ |①--②|
④⑤口口 |--③-|
口口口口 |----|
③①口② |④-⑤-|
72
口⑤②口 |①--②|
口口口口 |--③-|
口③⑥口 |④--⑤|
④口口① |--⑥-|
73
②④口口 |①--②|
口⑥口口 |--③-|
口口⑤口 |-④--|
口口③① |⑤-⑥-|
74
口口口① |①--②|
⑥口口② |--③-|
④口口⑤ |-④--|
③口口口 |⑤-⑥-|
75
③①②口 |①--②|
口口④口 |--③-|
口⑤口口 |----|
口②①③ |④-⑤-|
76
口口口口 |①--②|
④口口① |--③-|
口⑤②口 |④--⑤|
⑥口口③ |--⑥-|
77
①口口④ |①--②|
⑤口口② |--③-|
③口口⑥ |④--⑤|
口口口口 |--⑥-|
78
①⑤口④ |①--②|
⑤口④② |--③-|
③口口⑥ |④--⑤|
口口⑥口 |--⑥-|
79
②口①③ |①--②|
④⑤③口 |--③-|
口③口口 |----|
③①口② |④-⑤-|
80
①⑤②④ |①--②|
⑤⑥③② |--③-|
口③⑥口 |④--⑤|
④口口① |--⑥-|
81
②④口口 |①--②|
⑥⑥③① |--③-|
②④⑤⑤ |-④--|
口口③① |⑤-⑥-|
82
口口①① |①--②|
⑥口②② |--③-|
④④口⑤ |-④--|
③③口口 |⑤-⑥-|
83
③①②口 |①--②|
口口④口 |--③-|
口⑤口口 |----|
口②①③ |④-⑤-|
84
口口口口 |①--②|
④口口① |--③-|
口⑤②口 |④--⑤|
⑥⑥③③ |--⑥-|
85
①④①④ |①--②|
⑤②⑤② |--③-|
③⑥③⑥ |④--⑤|
口口口口 |--⑥-|
86
①⑤①④ |①--②|
⑤②④② |--③-|
③口③⑥ |④--⑤|
口口⑥口 |--⑥-|
87
②口①③ |①--②|
④⑤③口 |--③-|
口③口口 |----|
③①口② |④-⑤-|
88
①⑤②④ |①--②|
⑤⑥③② |--③-|
口③⑥口 |④--⑤|
④口口① |--⑥-|
89
②④口口 |①--②|
⑥⑥③① |--③-|
②④⑤⑤ |-④--|
口口③① |⑤-⑥-|
90
口口①① |①--②|
⑥口②② |--③-|
④④口⑤ |-④--|
③③口口 |⑤-⑥-|
91
③①②口 |①--②|
口口④口 |--③-|
口⑤口口 |----|
口②①③ |④-⑤-|
92
口口口口 |①--②|
④口口① |--③-|
口⑤②口 |④--⑤|
⑥⑥③③ |--⑥-|
93
①④①④ |①--②|
⑤②⑤② |--③-|
③⑥③⑥ |④--⑤|
口口口口 |--⑥-|
94
①⑤①④ |①--②|
⑤②④② |--③-|
③口③⑥ |④--⑤|
口口⑥口 |--⑥-|
95
口口口口 |①---|
口口口口 |----|
口①口口 |----|
①口口口 |----|

不確定度: 0

最終更新:2017年09月06日 23:03