EXUSIA
L.E.D.-G

EXTREME

Level: 10
BPM: 188
Notes: 860

1
口口口口 |----|
口口口口 |----|
口口口口 |----|
口口口口 |----|
2
口⑧⑧② |①-②③|
①③⑤口 |④-⑤-|
①⑥④口 |⑥-⑦-|
⑦口口口 |⑧---|
3
①口口口 |①-②-|
口②⑥口 |③---|
③⑤口口 |④-⑤-|
口口④口 |⑥---|
4
口口口④ |①-②-|
口③⑤口 |③---|
口口②⑥ |④-⑤-|
口①口口 |⑥---|
5
①口口② |--①-|
口③④口 |--②-|
口口口口 |--③-|
②口口① |④---|
6
①口口② |--①-|
⑤口口口 |--②-|
⑤④③口 |③-④-|
②口口① |⑤---|
7
口①口口 |①-②-|
口口②④ |③---|
口口⑤③ |④-⑤-|
口⑥口口 |⑥---|
8
口口⑥口 |①-②-|
③⑤口口 |③---|
④②口口 |④-⑤-|
口口①口 |⑥---|
9
②口口① |--①-|
口③④口 |--②-|
口口口口 |--③-|
①口口② |④---|
10
口⑤⑥口 |--①-|
⑤口口⑥ |②-③-|
③口口④ |④-⑤-|
①口口② |⑥---|
11
口口口口 |①-②-|
口口④口 |③---|
③⑤①口 |④-⑤-|
⑥②口口 |⑥---|
12
口④②口 |①-②-|
口①⑤③ |③---|
口口口⑥ |④-⑤-|
口口口口 |⑥---|
13
②口口① |--①-|
口③④口 |--②-|
口口口口 |--③-|
①口口② |④---|
14
口⑤⑥口 |--①-|
⑤口口⑥ |②-③-|
口③④口 |④-⑤-|
口①②口 |⑥---|
15
①口口④ |①-②-|
口②⑤口 |③---|
③⑥口口 |④-⑤-|
口口口口 |⑥---|
16
口口口口 |①-②-|
④③口口 |③---|
口⑤②口 |④-⑤-|
口①⑥口 |⑥---|
17
②口口① |--①-|
口③④口 |--②-|
口口口口 |--③-|
①口口② |④---|
18
口⑤⑥口 |--①-|
⑤口口⑥ |②-③-|
口③④口 |④-⑤-|
口①②口 |⑥---|
19
⑦口口① |①-②-|
⑥②口口 |③-④-|
⑤口口③ |--⑤-|
口④口口 |⑥-⑦-|
20
口口②① |----|
口③④⑤ |----|
口口①② |①--②|
口口口口 |-③④⑤|
21
口①口⑦ |①-②-|
②口口⑥ |③-④-|
口③口⑤ |--⑤-|
④口口口 |⑥-⑦-|
22
口①⑥⑥ |--①-|
③口②口 |②-③-|
①③口④ |④--⑤|
⑤⑤④② |--⑥-|
23
①口口⑦ |①-②-|
口口②⑥ |③-④-|
③口口⑤ |--⑤-|
口口④口 |⑥-⑦-|
24
②①口口 |----|
⑤④③口 |----|
①②口口 |①--②|
口口口口 |-③④⑤|
25
口⑦①口 |①-②-|
口口口② |③-④-|
口口③⑥ |--⑤-|
⑤口口④ |⑥-⑦-|
26
口⑪⑪② |①-②③|
①③⑤⑫ |④-⑤-|
①⑥④⑫ |⑥---⑦⑧⑨⑩|
⑦⑧⑨⑩ |⑪-⑫-|
27
②口口口 |①②-③|
⑥⑦④口 |--④-|
①⑤③口 |-⑤--|
口⑦⑥口 |⑥-⑦-|
28
口⑦⑥② |①②-③|
⑦口④口 |--④-|
⑥⑤③① |-⑤--|
口口口口 |⑥-⑦-|
29
④口口⑤ |①-②-|
⑦②⑤① |③④--|
⑦⑥口③ |⑤--⑥|
⑥①口② |--⑦-|
30
口②②③ |①--②|
口口口口 |--③-|
口口③口
口①①口

口口口口
口口④⑤
口口口⑤ |-④--|
口⑥⑥④ |⑤-⑥-|
31
②口口口 |①②-③|
⑥⑦④口 |--④-|
①⑤③口 |-⑤--|
口⑦⑥口 |⑥-⑦-|
32
口⑦⑥② |①②-③|
⑦口④口 |--④-|
⑥⑤③① |-⑤--|
口口口口 |⑥-⑦-|
33
④口口口 |①-②-|
口②口① |③④--|
口口口③
口①口②

口⑦口⑤
口口⑤⑦
⑥口口口 |⑤--⑥|
⑥口口口 |--⑦-|
34
口口③口 |①--②|
②②口口 |--③-|
口②③口
口①①口

④口口口
口口口口
④口口口 |-④--|
⑤⑥⑦⑧ |⑤⑥⑦⑧|
35
口口口② |①②-③|
口④⑦⑥ |--④-|
口③⑤① |-⑤--|
口⑥⑦口 |⑥-⑦-|
36
②⑥⑦口 |①②-③|
口④口⑦ |--④-|
①③⑤⑥ |-⑤--|
口口口口 |⑥-⑦-|
37
⑤口口④ |①-②-|
①⑤②⑦ |③④--|
③口⑥⑦ |⑤--⑥|
②口①⑥ |--⑦-|
38
③②②口 |①--②|
口口口口 |--③-|
口③口口
口①①口

口口口口
⑤④口口
⑤口口口 |-④--|
④⑥⑥口 |⑤-⑥-|
39
口口口② |①②-③|
口④⑦⑥ |--④-|
口③⑤① |-⑤--|
口⑥⑦口 |⑥-⑦-|
40
②⑥⑦④ |①②-③|
口④口⑦ |--④-|
①③⑤⑥ |-⑤--|
口口口口 |⑥-⑦-|
41
⑤口⑦④ |①-②-|
①⑦②⑥ |③④--|
③口⑤口 |⑤--⑥|
②口①⑥ |--⑦-|
42
口②口② |①--②|
③口口口 |--③-|
口口③②
①①①口

口口口口
口⑤⑤④
口④口口 |-④--|
⑥口口⑥ |⑤-⑥-|
43
①①①① |①---|
口口口口 |----|
口口口口 |----|
口口口口 |----|
44
口口口口 |----|
口口口口 |----|
口口口口 |----|
口口口口 |----|
45
口①口口 |①-②-|
口口②⑦ |③-④-|
⑥③口口 |--⑤-|
口口④⑤ |⑥-⑦-|
46
口口④口 |①-②-|
口③口口 |③-④-|
口⑤②口 |--⑤-|
口①⑥口 |⑥---|
47
口口口① |①-②-|
⑦②口口 |③-④-|
口口③⑥ |--⑤-|
④⑤口口 |⑥-⑦-|
48
口④口口 |①-②-|
⑦口③口 |③-④-|
口②⑥口 |--⑤-|
⑤口①口 |⑥-⑦-|
49
口④⑦口 |①-②-|
口⑥口③ |③-④-|
②口⑤口 |--⑤-|
口口①口 |⑥-⑦-|
50
口③口口 |--①-|
口⑤①口 |②-③-|
口②口口 |--④-|
口口④口 |⑤---|
51
口口口① |①-②-|
②口口⑤ |③-④-|
⑥口③口 |--⑤-|
口④口⑦ |⑥-⑦-|
52
口口④⑧ |①-②-|
③⑦口口 |③-④-|
口口②⑥ |⑤-⑥-|
①⑤口口 |⑦-⑧-|
53
①①口口 |①---|
口口④③ |②---|
口口口口 |--③-|
口口②口 |④---|
54
口口口口 |①---|
口口④③ |②---|
①①口口 |--③-|
④④②口 |④---|
55
①①口口 |①---|
口口④③ |②---|
口口口口 |--③-|
口口②口 |④---|
56
①①口口 |①---|
⑤⑤⑤④ |②---|
③③口口 |③-④-|
口口②口 |⑤---|
57
①①⑧⑦ |①-②-|
口口⑥⑤ |③-④-|
口口④③ |⑤-⑥-|
口口②① |⑦-⑧-|
58
⑧⑦口口 |①-②-|
⑥⑤口口 |③-④-|
④③口口 |⑤-⑥-|
②①口口 |⑦-⑧-|
59
口口⑧⑦ |①-②-|
口⑨⑥⑤ |③-④-|
口口④③ |⑤-⑥-|
口口②① |⑦-⑧⑨|
60
②口口口 |①-②-|
口口口口 |③④⑤⑥----|
①口口口
③④⑤⑥

口口口口
⑧口口⑦
⑨⑧⑦⑨ |⑦--⑧|
口口口口 |--⑨-|
61
口①①口 |①---|
口口口口 |----|
口口口口 |----|
口口口口 |----|
62
口口口口 |----|
口②口口 |----|
口口①口 |----|
口口口口 |①-②-|
63
⑥①口③ |①-②③|
①⑤④口 |--④-|
口⑥口口 |----|
口④⑤② |⑤-⑥-|
64
口口④③ |①-②③|
①口口④ |--④-|
①口口口
口口口②

⑦⑧口口
⑧口口口
口口⑤口 |⑤-⑥⑦|
⑥⑤口口 |--⑧-|
65
⑥口③⑤ |①--②|
口④②口 |--③-|
②①④③ |-④--|
⑤口①⑥ |⑤-⑥-|
66
口②③口 |①--②|
③口口② |--③-|
①口口口
口①口口

口口口④
口口口口
⑥④⑤口 |-④--|
口⑥口⑤ |⑤-⑥-|
67
③口口⑥ |①-②③|
口④⑤① |--④-|
口口⑥① |----|
②⑤④口 |⑤-⑥-|
68
③④口口 |①-②③|
④口口① |--④-|
口口口①
②口口口

口口⑧⑦
口口口⑧
口⑤口口 |⑤-⑥⑦|
口口⑤⑥ |--⑧-|
69
口③口口 |①--②|
口②口口 |--③-|
③口①②
口①口口

口口口口
⑥口口⑤
口⑤⑥口 |④--⑤|
④口口④ |--⑥-|
70
②口口① |①--②|
口②①口 |--③-|
口口口口
口③③口

口④④口
⑤口⑥口
口⑥口口 |④--⑤|
口口口⑤ |--⑥-|
71
③口口⑥ |①-②③|
口④⑤① |--④-|
口口⑥① |----|
②⑤④口 |⑤-⑥-|
72
③④口口 |①-②③|
④口口① |--④-|
口口口①
②口口口

口口⑧⑦
口口口⑧
口⑤口口 |⑤-⑥⑦|
口口⑤⑥ |--⑧-|
73
⑤③口⑥ |①--②|
口②④口 |--③-|
③④①② |-④--|
⑥①口⑤ |⑤-⑥-|
74
口③②口 |①--②|
②口口③ |--③-|
口口口①
口口①口

④口口口
口口口口
口⑤④⑥ |-④--|
⑤口⑥口 |⑤-⑥-|
75
⑥口口③ |①-②③|
①⑤④口 |--④-|
①⑥口口 |----|
口④⑤② |⑤-⑥-|
76
口口④③ |①-②③|
①口口④ |--④-|
①口口口
口口口②

⑦⑧口口
⑧口口口
口口⑤口 |⑤-⑥⑦|
⑥⑤口口 |--⑧-|
77
口口③口 |①--②|
口⑥②⑤ |--③-|
②①⑥③ |④--⑤|
④⑤①④ |--⑥-|
78
①⑥⑥② |①--②|
③口④口 |--③-|
①④口② |④--⑤|
口⑤⑤③ |--⑥-|
79
③口口⑥ |①-②③|
口④⑤① |--④-|
口④⑥① |----|
②⑤口口 |⑤-⑥-|
80
③④口口 |①-②③|
④口口① |--④-|
口口口①
②口口口

口口口⑦
口口⑧口
口⑤口⑧ |⑤-⑥⑦|
口口⑤⑥ |--⑧-|
81
③⑤⑦⑨ |①-②③|
口①⑩口 |-④⑤-|
口口①⑩ |⑥⑦-⑧|
②④⑥⑧ |⑨-⑩-|
82
③⑤⑦⑨ |①-②③|
口①⑩口 |-④⑤-|
口口①⑩ |⑥⑦-⑧|
②④⑥⑧ |⑨-⑩-|
83
③口口口 |①-②③|
口①口口 |--④-|
口④①口
②口④口

口口口⑥
口口⑤口
口口⑥口 |----|
口⑤口口 |⑤-⑥-|
84
③④口口 |①-②③|
④口口① |--④-|
口口口①
②口口口

口口⑧⑦
口口口⑧
口⑤口口 |⑤-⑥⑦|
口口⑤⑥ |--⑧-|
85
口③口口 |①--②|
⑤②⑥口 |--③-|
②⑥①③ |④--⑤|
④①⑤④ |--⑥-|
86
①⑥⑥② |①--②|
口④口③ |--③-|
①口④② |④--⑤|
③⑤⑤口 |--⑥-|
87
⑥口口③ |①-②③|
①⑤④口 |--④-|
①⑥④口 |----|
口口⑤② |⑤-⑥-|
88
口口④③ |①-②③|
①口口④ |--④-|
①口口口
口口口②

⑦口口口
口⑧口口
⑧口⑤口 |⑤-⑥⑦|
⑥⑤口口 |--⑧-|
89
⑨⑦⑤③ |①-②③|
⑩口①口 |-④⑤-|
口①⑩口 |⑥⑦-⑧|
⑧⑥④② |⑨-⑩-|
90
⑨⑦⑤③ |①-②③|
⑩①口口 |-④⑤-|
口①⑩口 |⑥⑦-⑧|
⑧⑥④② |⑨-⑩-|
91
⑧口口④ |①-②-|
⑦①口③ |③-④-|
⑥①口② |⑤-⑥-|
⑤口口① |⑦-⑧-|
92
口⑦⑥口 |①-②-|
口④②口 |③-④-|
口③①口 |⑤-⑥⑦|
⑧⑤⑤⑧ |--⑧-|
93
④⑯⑮③ |①②③④|
⑫⑧⑦⑪ |⑤⑥⑦⑧|
⑥②①⑤ |⑨⑩⑪⑫|
⑭⑩⑨⑬ |⑬⑭⑮⑯|
94
④口口③ |①②③④|
口⑥⑤口 |⑤⑥⑦⑧|
⑧②①⑦
口口口口

口⑮⑮口
⑩口口⑨
口⑯⑯口 |⑨-⑩-⑪⑫⑬⑭|
⑭⑬⑫⑪ |⑮-⑯-|
95
①口口① |①---|
口口口口 |----|
口口口口 |----|
口口口口 |----|

不確定度: 0

最終更新:2017年09月06日 23:03