Another Phase
TAG

BASIC

Level: 3
BPM: 160
Notes: 248

1
口口口口 |----|
口口口口 |----|
口口口口 |----|
口口口口 |----|
2
口口口口 |①---|
口口口口 |----|
口口口口 |----|
口①①口 |----|
3
口口口口 |①---|
口口口口 |----|
口①①口 |----|
口口口口 |----|
4
口口口口 |①---|
口①①口 |----|
口口口口 |----|
口口口口 |----|
5
口①①口 |①---|
口口口口 |----|
口口口口 |----|
口口口口 |----|
6
口口口口 |①---|
口口口口 |----|
口口口口 |----|
口①①口 |----|
7
口口口口 |①---|
口口口口 |----|
口①①口 |----|
口口口口 |----|
8
口口口口 |①---|
口①①口 |----|
口口口口 |----|
口口口口 |----|
9
口①①口 |①---|
口口口口 |----|
口②②口 |②---|
口口口口 |----|
10
①口口① |①---|
口口口口 |----|
口口口口
口口口口

③③③③
口②②口
口口口口 |②---|
口口口口 |③---|
11
口口口口 |①---|
①②③④ |②---|
口口口口 |③---|
口口口口 |④---|
12
口口口口 |①---|
口口口口 |②---|
④③②① |③---|
口口口口 |④---|
13
口口口口 |①---|
①②③④ |②---|
口口口口 |③---|
口口口口 |④---|
14
④口口口 |①---|
③口口口 |②---|
②口口口 |③---|
①口口口 |④---|
15
口口口口 |①---|
口口口口 |②---|
④③②① |③---|
口口口口 |④---|
16
口口口口 |①---|
①②③④ |②---|
口口口口 |③---|
口口口口 |④---|
17
口口口口 |①---|
口口口口 |②---|
口③④口 |③---|
口①②口 |④---|
18
口③④口 |①---|
口①②口 |②---|
口口口口 |③---|
口口口口 |④---|
19
口口口口 |①---|
①②③④ |②---|
口口口口 |③---|
口口口口 |④---|
20
口口口口 |①---|
口口口口 |②---|
④③②① |③---|
口口口口 |④---|
21
口口口口 |①---|
①②③④ |②---|
口口口口 |③---|
口口口口 |④---|
22
④口口口 |①---|
③口口口 |②---|
②口口口 |③---|
①口口口 |④---|
23
口口口口 |①---|
口口口口 |②---|
④③②① |③---|
口口口口 |④---|
24
口口口口 |①---|
①②③④ |②---|
口口口口 |③---|
口口口口 |④---|
25
口口口口 |①---|
口口口口 |②---|
口③④口 |③---|
口①②口 |④---|
26
口③④口 |①---|
口①②口 |②---|
口口口口 |③---|
口口口口 |④---|
27
口口口口 |①---|
口②②口 |----|
口①①口 |②---|
口口口口 |----|
28
口口口① |①---|
口口口② |②---|
口口口③ |③---|
口口口④ |④---|
29
口口口口 |①---|
口②②口 |----|
口①①口 |②---|
口口口口 |----|
30
①口口口 |①---|
②口口口 |②---|
③口口口 |③---|
④口口口 |④---|
31
口口口口 |①---|
口②②口 |----|
口①①口 |②---|
口口口口 |----|
32
口口口① |①---|
口口口② |②---|
口口口③ |③---|
口口口④ |④---|
33
②口口② |①---|
口口口口 |--②-|
口①①口 |----|
口口口口 |----|
34
口口口口 |①---|
口①②口 |②---|
口④③口 |③---|
口口口口 |④---|
35
口口口口 |①---|
②口口② |----|
①口口① |②---|
口口口口 |----|
36
①口口① |①---|
口②②口 |----|
口口口口 |②---|
口口口口 |----|
37
口①口口 |①---|
口②口口 |②---|
口③口口 |③---|
口④口口 |④---|
38
口口④口 |①---|
口口③口 |②---|
口口②口 |③---|
口口①口 |④---|
39
口口口口 |①---|
口②②口 |----|
口①①口 |②---|
口口口口 |----|
40
口口口① |①---|
口口口② |②---|
口口口③ |③---|
口口口④ |④---|
41
②口口② |①---|
口口口口 |--②-|
口①①口 |----|
口口口口 |----|
42
口口口口 |----|
口口口口 |----|
口口口口 |----|
口口口口 |----|
43
口口口口 |①---|
口①口口 |----|
口口②口 |②---|
口口口口 |----|
44
口口口口 |①---|
口口口口 |----|
口口口口 |----|
口①口口 |----|
45
口口②口 |①---|
口口③口 |----|
口①①口 |②---|
口口口口 |③---|
46
口口口口 |①---|
口口口口 |----|
口口①口 |----|
口口口口 |----|
47
口口②口 |①---|
口①①口 |----|
口口口口 |②---|
口口口口 |----|
48
口口口口 |①---|
口①口口 |----|
口口②口 |②---|
口口口口 |----|
49
口口口口 |①---|
口口②口 |----|
口①口口 |②---|
口口口口 |----|
50
口①口口 |①---|
口口口口 |----|
口②②口 |②---|
口口口口 |----|
51
①口口① |①---|
口口口口 |----|
口口口口
口口口口

③③③③
口②②口
口口口口 |②---|
口口口口 |③---|
52
口口口口 |①---|
①②③④ |②---|
口口口口 |③---|
口口口口 |④---|
53
口口口口 |①---|
口口口口 |②---|
④③②① |③---|
口口口口 |④---|
54
口口口口 |①---|
①②③④ |②---|
口口口口 |③---|
口口口口 |④---|
55
④口口口 |①---|
③口口口 |②---|
②口口口 |③---|
①口口口 |④---|
56
口口口口 |①---|
口口口口 |②---|
④③②① |③---|
口口口口 |④---|
57
口口口口 |①---|
①②③④ |②---|
口口口口 |③---|
口口口口 |④---|
58
口口口口 |①---|
口口口口 |②---|
口③④口 |③---|
口①②口 |④---|
59
口③④口 |①---|
口①②口 |②---|
口口口口 |③---|
口口口口 |④---|
60
口口口口 |①---|
①②③④ |②---|
口口口口 |③---|
口口口口 |④---|
61
口口口口 |①---|
口口口口 |②---|
④③②① |③---|
口口口口 |④---|
62
口口口口 |①---|
①②③④ |②---|
口口口口 |③---|
口口口口 |④---|
63
④口口口 |①---|
③口口口 |②---|
②口口口 |③---|
①口口口 |④---|
64
口口口口 |①---|
口口口口 |②---|
④③②① |③---|
口口口口 |④---|
65
口口口口 |①---|
①②③④ |②---|
口口口口 |③---|
口口口口 |④---|
66
②口口② |①---|
口口口口 |----|
口①①口 |②---|
口口口口 |----|
67
口①①口 |①---|
口②②口 |②---|
口③③口 |③---|
口④④口 |④---|
68
①①①① |①---|
口口口口 |----|
口口口口 |----|
口口口口 |----|

不確定度: 0

最終更新:2017年09月06日 23:03