Another Phase
TAG

ADVANCED

Level: 7
BPM: 160
Notes: 432

1
口口口口 |----|
口口口口 |----|
口口口口 |----|
口口口口 |----|
2
口口口口 |①---|
口口口口 |--②-|
口口口① |----|
口口口② |----|
3
口口口口 |①---|
口口口口 |--②-|
口口②口 |----|
口口①口 |----|
4
口口口口 |①---|
口②口口 |--②-|
口①口口 |----|
口口口口 |----|
5
②口口口 |①---|
①口口口 |--②-|
口口口口 |----|
口口口口 |----|
6
口口口口 |①---|
口口口口 |--②-|
口口口① |----|
口口口② |----|
7
口口口口 |①---|
口口口口 |--②-|
口口②口 |----|
口口①口 |----|
8
口口口口 |①---|
口②口口 |--②-|
口①口口 |----|
口口口口 |----|
9
②口口口 |①---|
①③③口 |--②-|
④口口④ |③--④|
口⑤⑤口 |--⑤-|
10
口①①口 |①---|
口口口口 |----|
口口口口
口口口口

③③③③
口口口口
口口口口 |②---|
②口口② |③---|
11
⑥口口⑤ |①--②|
①④④口 |--③-|
口口②口 |④---|
③口口口 |⑤-⑥-|
12
⑤口口⑥ |①--②|
口④④① |--③-|
口②口口 |④---|
口口口③ |⑤-⑥-|
13
⑥口口⑤ |①--②|
①④④口 |--③-|
口口②口 |④---|
③口口口 |⑤-⑥-|
14
口口口口 |①--②|
口④口① |--③-|
口②口⑤ |④--⑤|
口⑥口③ |--⑥-|
15
⑥口口⑤ |①--②|
①④④口 |--③-|
口口②口 |④---|
③口口口 |⑤-⑥-|
16
⑤口口⑥ |①--②|
口④④① |--③-|
口②口口 |④---|
口口口③ |⑤-⑥-|
17
口口口口 |①--②|
①口口⑥ |--③-|
口⑤②口 |④--⑤|
③口口④ |--⑥-|
18
口口③口 |①--②|
②④口口 |--③-|
口口①⑤ |④--⑤|
口⑥口口 |--⑥-|
19
⑥口口⑤ |①--②|
①④④口 |--③-|
口口②口 |④---|
③口口口 |⑤-⑥-|
20
⑤口口⑥ |①--②|
口④④① |--③-|
口②口口 |④---|
口口口③ |⑤-⑥-|
21
⑥口口⑤ |①--②|
①④④口 |--③-|
口口②口 |④---|
③口口口 |⑤-⑥-|
22
口口口口 |①--②|
口④口① |--③-|
口②口⑤ |④--⑤|
口⑥口③ |--⑥-|
23
⑥口口⑤ |①--②|
①④④口 |--③-|
口口②口 |④---|
③口口口 |⑤-⑥-|
24
⑤口口⑥ |①--②|
口④④① |--③-|
口②口口 |④---|
口口口③ |⑤-⑥-|
25
口⑦⑧口 |①-②-|
口⑤⑥口 |③-④-|
口③④口 |⑤-⑥-|
口①②口 |⑦-⑧-|
26
⑦口口⑧ |①-②-|
⑤口口⑥ |③-④-|
③口口④ |⑤-⑥-|
①口口② |⑦-⑧-|
27
口②口口 |①--②|
口④③口 |-③④-|
口①①口
口口口口

口⑧⑧口
口口口⑤
口口口⑥ |⑤-⑥-|
口口口⑦ |⑦--⑧|
28
①口口① |--①-|
⑤②③口 |②③-④|
⑥口口口 |--⑤-|
⑦④④口 |⑥-⑦-|
29
口②口口 |①--②|
口④③口 |-③④-|
口①①口
口口口口

口⑧⑧口
口口口⑤
口口口⑥ |⑤-⑥-|
口口口⑦ |⑦--⑧|
30
①口口① |--①-|
⑦②③口 |②③-④|
⑥口口口 |--⑤-|
⑤④④口 |⑥-⑦-|
31
口②口口 |①--②|
口④③口 |-③④-|
口①①口
口口口口

口⑧⑧口
口口口⑤
口口口⑥ |⑤-⑥-|
口口口⑦ |⑦--⑧|
32
①口口① |--①-|
⑤②③口 |②③-④|
⑥口口口 |--⑤-|
⑦④④口 |⑥-⑦-|
33
③③③③ |①--②|
口①②口 |--③-|
口②①口 |----|
口口口口 |----|
34
②口口① |--①-|
⑤口口⑥ |-②--|
③口口④ |③-④-|
①口口② |⑤-⑥-|
35
口口②口 |①--②|
口③④口 |-③④-|
口口口口
口①①口

口口口口
⑥口口⑥
口⑦⑧口 |⑤-⑥-|
⑤⑨⑨⑤ |⑦⑧-⑨|
36
⑤口口④ |--①-|
③①①② |----|
口口口口 |②-③-|
口口口口 |④-⑤-|
37
口口口口 |①-②-|
⑥①①口 |-③--|
⑤口口口 |④--⑤|
④③②口 |--⑥-|
38
口②口口 |①-②-|
口④③口 |③④--|
口①①口
口口口口

口口口口
口口口口
⑤⑨⑧⑤ |⑤-⑥⑦|
口⑦⑥口 |-⑧⑨-|
39
①口②① |①--②|
口③④口 |-③④-|
口口口口
口口口口

口⑧⑧口
⑤口口口
⑥口口口 |⑤-⑥-|
⑦口口口 |⑦--⑧|
40
①口口① |--①-|
口③②⑦ |②③-④|
口口口⑥ |--⑤-|
口④④⑤ |⑥-⑦-|
41
③③③③ |①--②|
口②①口 |--③-|
口①②口 |----|
口口口口 |----|
42
口口口口 |----|
口口口口 |----|
口口口口 |----|
口口口口 |----|
43
口口口口 |①---|
口①口口 |----|
口口②口 |②---|
口口口口 |----|
44
口口口口 |①---|
口口口口 |----|
口②口口 |----|
口口口① |②---|
45
口口②口 |①---|
口③口口 |----|
口口①口 |②---|
口口口口 |③---|
46
口口口口 |①---|
口口口口 |----|
口口①口 |----|
口②口口 |②---|
47
口口口口 |①---|
②口口口 |----|
口①口口 |②---|
口口口口 |----|
48
口①②口 |①---|
口口口口 |----|
口口口口 |②---|
口口口口 |----|
49
口口口口 |①---|
口口口① |----|
口口②口 |②---|
口口口口 |----|
50
口口口口 |①---|
口②口口 |----|
口①③口 |②--③|
口④口口 |--④-|
51
口①①口 |①---|
口口口口 |----|
口口口口
口口口口

③③③③
口口口口
口口口口 |②---|
②口口② |③---|
52
口⑦⑥口 |①--②|
口⑤④① |--③-|
口②口口 |④⑤-⑥|
口⑧⑧③ |⑦-⑧-|
53
口⑥⑦口 |①--②|
①④⑤口 |--③-|
口口②口 |④⑤-⑥|
③⑧⑧口 |⑦-⑧-|
54
口⑦⑥口 |①--②|
口⑤④① |--③-|
口②口口 |④⑤-⑥|
口⑧⑧③ |⑦-⑧-|
55
口口口口 |①--②|
①口④口 |--③-|
⑤口②口 |④--⑤|
③口⑥口 |--⑥-|
56
口⑦⑥口 |①--②|
口⑤④① |--③-|
口②口口 |④⑤-⑥|
口⑧⑧③ |⑦-⑧-|
57
口⑥⑦口 |①--②|
①④⑤口 |--③-|
口口②口 |④⑤-⑥|
③⑧⑧口 |⑦-⑧-|
58
口口口口 |①--②|
⑥口口① |--③-|
口②⑤口 |④--⑤|
④口口③ |--⑥-|
59
口③口口 |①--②|
口口④② |--③-|
⑤①口口 |④--⑤|
口口⑥口 |--⑥-|
60
口⑦⑥口 |①--②|
口⑤④① |--③-|
口②口口 |④⑤-⑥|
口⑧⑧③ |⑦-⑧-|
61
口⑥⑦口 |①--②|
①④⑤口 |--③-|
口口②口 |④⑤-⑥|
③⑧⑧口 |⑦-⑧-|
62
口⑦⑥口 |①--②|
口⑤④① |--③-|
口②口口 |④⑤-⑥|
口⑧⑧③ |⑦-⑧-|
63
口口口口 |①--②|
①口④口 |--③-|
⑤口②口 |④--⑤|
③口⑥口 |--⑥-|
64
口①①口 |①---|
⑦口口⑥ |②-③-|
⑤口口④ |④-⑤-|
③口口② |⑥-⑦-|
65
口①①口 |①---|
⑦口口⑥ |②-③-|
⑤口口④ |④-⑤-|
③口口② |⑥-⑦-|
66
口①①口 |①---|
口口口口 |----|
口②②口 |②---|
口口口口 |----|
67
口①①口 |①---|
口②②口 |②---|
口③③口 |③---|
口④④口 |④---|
68
①①①① |①---|
口口口口 |----|
口口口口 |----|
口口口口 |----|

不確定度: 0

最終更新:2017年09月06日 23:03