恋のメリーゴーランド
森野くま子

ADVANCED

Level: 7
BPM: 195
Notes: 506

1
口口口口 |----|
口口口口 |----|
口口口口 |----|
口口口口 |----|
2
①口口口 |①---|
口②③口 |②---|
①口口⑤ |③---|
口④③口 |④-⑤-|
3
口①⑥① |--①-|
②口口④ |--②-|
口⑤口口 |③-④-|
口口口③ |⑤-⑥-|
4
口口口口 |①---|
③④③口 |②---|
口口⑤口 |③---|
①②①口 |④-⑤-|
5
口②口② |--①-|
口口口口 |--②-|
口①口① |----|
口口口口 |----|
6
①口口口 |①---|
口②③口 |②---|
①口口⑤ |③---|
口④③口 |④-⑤-|
7
口①⑥① |--①-|
②口口④ |--②-|
口⑤口口 |③-④-|
口口口③ |⑤-⑥-|
8
口口口口 |①---|
③④③④ |②---|
口口口口 |③---|
①②①口 |④---|
9
口口口口 |----|
口口口口 |----|
口口口口 |----|
口口口口 |----|
10
③口口④ |--①-|
口②⑤口 |②-③-|
口⑥①口 |--④-|
口口口口 |⑤-⑥-|
11
口口口口 |--①-|
①口口⑥ |②-③-|
②口口⑤ |--④-|
③口口④ |⑤-⑥-|
12
①口口⑥ |--①-|
口②⑤口 |②-③-|
口④③口 |--④-|
口口口口 |⑤-⑥-|
13
口①①口 |①-②-|
⑦口口② |③-④-|
③口口⑥ |--⑤-|
⑤口口④ |⑥-⑦-|
14
③口口④ |--①-|
口②⑤口 |②-③-|
口⑥①口 |--④-|
口口口口 |⑤-⑥-|
15
口口口口 |--①-|
①口口⑥ |②-③-|
②口口⑤ |--④-|
③口口④ |⑤-⑥-|
16
①口口⑥ |--①-|
口②⑤口 |②-③-|
口④③口 |--④-|
口口口口 |⑤-⑥-|
17
口①①口 |①---|
口口口口 |②---|
口口口口 |----|
②②②② |----|
18
①口口⑥ |--①-|
②口口⑤ |②-③-|
③口口④ |--④-|
口口口口 |⑤-⑥-|
19
口口口口 |--①-|
口⑥③口 |②-③-|
口②⑤口 |--④-|
①口口④ |⑤-⑥-|
20
④口口⑤ |--①-|
③口口⑥ |②-③-|
②口口⑦ |④-⑤-|
①口口口 |⑥-⑦-|
21
③④⑤口 |①---|
口口口口 |②---|
口口口口 |--③-|
口②②① |④-⑤-|
22
口口口口 |--①-|
⑥③②① |②-③-|
口⑤口口 |--④-|
口口④口 |⑤-⑥-|
23
⑥⑤④口 |--①-|
口口口③ |②-③-|
①口②口 |--④-|
①①口口 |⑤-⑥-|
24
口口口口 |--①-|
口①②③ |②-③-|
⑦⑥⑤④ |④-⑤-|
口口口口 |⑥-⑦-|
25
口②②口 |①---|
口口口口 |②---|
口口口口
口①①口

口口口口
口口口口
口口口④ |--③-|
口口⑤③ |④-⑤-|
26
口口口④ |①---|
口口⑤① |②-③-|
口⑥②口 |--④-|
口③口口 |⑤-⑥-|
27
口⑤②口 |①---|
口③口口 |--②-|
④口口口 |--③-|
①口口口 |④-⑤-|
28
②口口口 |①---|
①口口⑥ |②-③-|
口口口④ |--④-|
口口⑤③ |⑤-⑥-|
29
口口口口 |①---|
口口③口 |②-③-|
口③①口 |----|
口②口口 |----|
30
①③⑥口 |①---|
②⑤口口 |②-③-|
④口口口 |--④-|
口口口口 |⑤-⑥-|
31
口口口④ |①---|
口口③口 |②-③-|
口②⑥口 |--④-|
①⑤口口 |⑤-⑥-|
32
口口口口 |①---|
口口口① |----|
口口口口 |----|
口口口口 |----|
33
口口口口 |----|
口口口口 |----|
②③②口 |--①-|
口①口口 |②-③-|
34
口②②口 |①---|
①口①口 |--②-|
口口口口 |----|
口口口口 |----|
35
口口③口 |--①-|
口②③③ |②-③-|
①②②⑤ |----|
①①口④ |④-⑤-|
36
②口口口 |①---|
口③口口 |②-③-|
口口④⑤ |--④-|
口⑤①口 |--⑤-|
37
口口口② |--①-|
口②口① |--②-|
口①口口 |----|
口口口口 |----|
38
①④口口 |①---|
口②口④ |②-③-|
口⑤③口 |--④-|
口口口⑤ |--⑤-|
39
口口口口 |--①-|
口口口口 |--②-|
口口②④ |----|
①口口③ |③-④-|
40
②口口口 |①---|
口③口口 |②-③-|
口口④⑤ |--④-|
口⑤①口 |--⑤-|
41
口口口② |--①-|
口②口① |--②-|
口①口口 |----|
口口口口 |----|
42
①②口口 |①---|
口口口口 |----|
口口口口 |②---|
口口口口 |----|
43
口口口口 |①---|
口①①① |--②-|
④②口② |----|
③口口口 |③-④-|
44
口口口② |①---|
口口③口 |②-③-|
⑤④口口 |--④-|
口①⑤口 |--⑤-|
45
②口口口 |--①-|
①口②口 |--②-|
口口①口 |----|
口口口口 |----|
46
口口口口 |①---|
口口③口 |②-③-|
口②口口
①口口口

口口④口
④口口口
口口⑤口 |--④-|
⑤口口口 |--⑤-|
47
口口口口 |--①-|
口口口口 |--②-|
④②口口 |----|
③口口① |③-④-|
48
口口口② |①---|
口口③口 |②-③-|
⑤④口口 |--④-|
口①⑤口 |--⑤-|
49
②口口口 |--①-|
①口②④ |--②-|
口④①③ |③---|
口③口口 |④---|
50
口口②① |①---|
口口口口 |----|
口口口口 |②---|
口口口口 |----|
51
口口口口 |①---|
①①①口 |--②-|
②口②口 |----|
口口口口 |----|
52
口口口口 |--①-|
口口口口 |----|
③口口⑤ |-②--③-|
②①①④ |④-⑤---|
53
①②②① |--①-|
④口口④ |②-③-|
口③③口 |④---|
⑤口口⑤ |⑤---|
54
①③②口 |①-②-|
⑤口口④ |③-④-|
口⑥⑥口 |--⑤-|
口口口口 |--⑥-|
55
口口口口 |--①-|
口口口口 |----|
口口口口 |----|
①①①① |----|
56
①③②④ |①-②-|
口⑤⑤口 |③-④-|
口⑥⑥口 |--⑤-|
口口口口 |--⑥-|
57
口口口口 |--①-|
③口口口 |----|
口口口② |②---|
①①①① |③---|
58
①③②口 |①-②-|
⑤口口④ |③-④-|
口⑥⑥口 |--⑤-|
口口口口 |--⑥-|
59
口口口口 |--①-|
口口口口 |----|
口口口口 |----|
①①①① |----|
60
口口⑤④ |①-②-|
⑥⑥⑥③ |③-④-|
口②口口 |--⑤-|
口口口① |--⑥-|
61
口口口口 |--①-|
口口口口 |----|
①口①③ |----|
口口口② |②-③-|
62
②口口口 |①---|
口③口口 |②-③-|
口口④⑤ |--④-|
口⑤①口 |--⑤-|
63
口口口② |--①-|
口②④① |--②-|
③①口口 |③---|
口口口口 |④---|
64
①④口口 |①---|
口②口④ |②-③-|
口⑤③口 |--④-|
口口口⑤ |--⑤-|
65
口口口口 |--①-|
口口口口 |--②-|
口口②④ |----|
①口口③ |③-④-|
66
②口口口 |①---|
口③口口 |②-③-|
口口④⑤ |--④-|
口⑤①口 |--⑤-|
67
口口口② |--①-|
口②口① |--②-|
口①④口 |③---|
口口口③ |④---|
68
①口口口 |①---|
口口口口 |----|
口口口口 |②---|
口口②口 |----|
69
口口口口 |①---|
口②口② |--②-|
④①①① |----|
③口口口 |③-④-|
70
口口口② |①---|
口口③口 |②-③-|
⑤④口口 |--④-|
口①⑤口 |--⑤-|
71
②口口口 |--①-|
①④②口 |--②-|
口口①③ |③---|
口口口口 |④---|
72
口口口口 |①---|
口口③口 |②-③-|
口②口口
①口口口

口口④口
④口口口
口口⑤口 |--④-|
⑤口口口 |--⑤-|
73
口口口口 |--①-|
口口口口 |--②-|
④②口口 |----|
③口口① |③-④-|
74
口口口② |①---|
口口③口 |②-③-|
⑤④口口 |--④-|
口①⑤口 |--⑤-|
75
②口口口 |--①-|
①口②口 |--②-|
口口①口 |----|
口口口口 |----|
76
口①①口 |①---|
②口口口 |----|
②口口口 |②---|
口口口口 |----|
77
口口口口 |①---|
口口口② |----|
口口口② |②---|
口①①口 |----|
78
口口④口 |----|
口口口③ |①---|
口口②口 |---②-③|
口口①口 |-④----|
79
⑤口口⑤ |--①-|
口③③口 |②-③-|
④口口④ |④---|
①②②① |⑤---|
80
口口口口 |①-②-|
口⑥⑥口 |③-④-|
④口口⑤ |--⑤-|
口②③① |--⑥-|
81
①①①① |--①-|
口口口口 |----|
口口口口 |----|
口口口口 |----|
82
口口口口 |①-②-|
口⑥⑥口 |③-④-|
口⑤⑤口 |--⑤-|
④②③① |--⑥-|
83
①①①① |--①-|
口口口口 |----|
②口口③ |②---|
②口口③ |③---|
84
①③②口 |①-②-|
⑤口口④ |③-④-|
口⑥⑥口 |--⑤-|
口口口口 |--⑥-|
85
口口口口 |--①-|
口口口口 |----|
口口口口 |----|
①①①① |----|
86
①③②口 |①-②-|
⑤口口④ |③-④-|
口⑥⑥口 |--⑤-|
口口口口 |--⑥-|
87
口口口口 |--①-|
口口口口 |----|
口口口口 |----|
①①①① |----|
88
口口⑤④ |①-②-|
⑥⑥⑥口 |③-④-|
口口口③ |--⑤-|
口口②① |--⑥-|
89
口口口口 |--①-|
口口口口 |----|
①口①口 |----|
口口口口 |----|


不确定度: 0

最終更新:2012年11月11日 16:38