Another Phase
TAG

EXTREME

Level: 9
BPM: 160
Notes: 693

1
口口口口 |----|
口口口口 |----|
口口口口 |----|
口口口口 |----|
2
口⑤口口 |①--②|
口⑥口口 |--③-|
口口口口 |-④--|
④①②③ |⑤-⑥-|
3
口口口口 |①--②|
口口口口 |--③-|
口①②③
口口口口

口口口口
口口口口
④⑥口口 |-④--|
口⑤口口 |⑤-⑥-|
4
口口口口 |①--②|
口①②③ |--③-|
口口口口
口口口口

口口口口
④⑥口口
口⑤口口 |-④--|
口口口口 |⑤-⑥-|
5
④①②③ |①--②|
口⑤口口 |--③-|
口⑥口口 |-④--|
口口口口 |⑤-⑥-|
6
口⑤口口 |①--②|
口⑥口口 |--③-|
口口口口 |-④--|
④①②③ |⑤-⑥-|
7
口口口口 |①--②|
口口口口 |--③-|
口①②③
口口口口

口口口口
口口口口
④⑥口口 |-④--|
口⑤口口 |⑤-⑥-|
8
口口口口 |①--②|
口①②③ |--③-|
口口口口
口口口口

口口口口
④⑥口口
口⑤口口 |-④--|
口口口口 |⑤-⑥-|
9
口①②③ |①--②|
④口口⑥ |--③-|
口⑤⑤口 |④--⑤|
⑥口口④ |--⑥-|
10
①①①口 |①---|
口口口口 |----|
口口口口
口口口口

③③③③
口口口口
口口口口 |②---|
口②②口 |③---|
11
⑥口⑦⑤ |①--②|
①⑧⑧口 |--③-|
口②⑤⑦ |④⑤-⑥|
④口③口 |⑦-⑧-|
12
⑥口⑦⑤ |①--②|
①⑧⑧口 |--③-|
口②⑤⑦ |④⑤-⑥|
④口③口 |⑦-⑧-|
13
⑥口⑦⑤ |①--②|
①⑧⑧口 |--③-|
口②⑤⑦ |④⑤-⑥|
④口③口 |⑦-⑧-|
14
口①⑥③ |①--②|
①口⑤② |--③-|
⑥⑤口④ |④--⑤|
③②④口 |--⑥-|
15
⑤⑦口⑥ |①--②|
口⑧⑧① |--③-|
⑦⑤②口 |④⑤-⑥|
口③口④ |⑦-⑧-|
16
⑤⑦口⑥ |①--②|
口⑧⑧① |--③-|
⑦⑤②口 |④⑤-⑥|
口③口④ |⑦-⑧-|
17
③口②口 |①--②|
①口口② |--③-|
口口口口
口口①③

口口口④
⑥口口口
⑤口口口 |④--⑤|
④⑤⑥口 |--⑥-|
18
④①⑤③ |①--②|
口②口⑤ |--③-|
⑥③②① |④--⑤|
口⑥口④ |--⑥-|
19
⑥口⑦⑤ |①--②|
①⑧⑧口 |--③-|
口②⑤⑦ |④⑤-⑥|
④口③口 |⑦-⑧-|
20
⑥口⑦⑤ |①--②|
①⑧⑧口 |--③-|
口②⑤⑦ |④⑤-⑥|
④口③口 |⑦-⑧-|
21
⑥口⑦⑤ |①--②|
①⑧⑧口 |--③-|
口②⑤⑦ |④⑤-⑥|
④口③口 |⑦-⑧-|
22
口①⑥③ |①--②|
①口⑤② |--③-|
⑥⑤口④ |④--⑤|
③②④口 |--⑥-|
23
⑤⑦口⑥ |①--②|
口⑧⑧① |--③-|
⑦⑤②口 |④⑤-⑥|
口③口④ |⑦-⑧-|
24
⑤⑦口⑥ |①--②|
口口口① |--③-|
⑦⑤②口 |④⑤-⑥|
⑧③⑧④ |⑦-⑧-|
25
口口①口 |①-②③|
①口⑤③ |-④⑤-|
口口④②
口口口口

⑩⑩⑩口
⑨⑦口口
⑧⑥口口 |⑥⑦-⑧|
口口口口 |⑨-⑩-|
26
⑯⑫⑪⑩ |①②③④|
⑮⑨⑧⑦ |⑤⑥⑦⑧|
⑭⑥⑤④ |⑨⑩⑪⑫|
⑬③②① |⑬⑭⑮⑯|
27
⑨⑥⑦⑤ |①②-③|
⑧⑩③④ |-④⑤-|
口口②① |⑥-⑦-|
⑩⑦⑥③ |⑧⑨-⑩|
28
口口口③ |--①-|
⑤口④② |②③-④|
⑥①①口 |--⑤-|
⑦口口④ |⑥-⑦-|
29
⑨⑥⑦⑤ |①②-③|
⑧⑩③④ |-④⑤-|
口口②① |⑥-⑦-|
⑩⑦⑥③ |⑧⑨-⑩|
30
⑦口口③ |--①-|
⑥口口② |②③-④|
⑤①①口 |--⑤-|
口④④口 |⑥-⑦-|
31
⑨⑥⑦⑤ |①②-③|
⑧⑩③④ |-④⑤-|
口口②① |⑥-⑦-|
⑩⑦⑥③ |⑧⑨-⑩|
32
口口口③ |--①-|
⑤口④② |②③-④|
⑥①①口 |--⑤-|
⑦口口④ |⑥-⑦-|
33
②③②③ |①--②|
口②③① |--③-|
口③①③ |----|
口①口口 |----|
34
①①口② |--①-|
口口口② |-②--|
②口口口
②口①①

⑥口口口
⑤口口口
口④口口 |③-④-|
口③口口 |⑤-⑥-|
35
⑨⑥⑦⑤ |①②-③|
⑧⑩③④ |-④⑤-|
口口②① |⑥-⑦-|
⑩⑦⑥③ |⑧⑨-⑩|
36
口口口⑤ |--①-|
口口口④ |----|
口①①③ |②-③-|
口口口② |④-⑤-|
37
口②②口 |①-②-|
④⑧⑩⑥ |③④-⑤|
③⑦⑨⑤ |⑥-⑦⑧|
口①①口 |-⑨⑩-|
38
⑩②②口 |①-②-|
⑧⑥口④ |③④-⑤|
⑦⑤口③ |⑥-⑦⑧|
⑨①①口 |-⑨⑩-|
39
⑨⑥⑦⑤ |①②-③|
⑧⑩③④ |-④⑤-|
口口②① |⑥-⑦-|
⑩⑦⑥③ |⑧⑨-⑩|
40
⑦口口③ |--①-|
⑥口④② |②③-④|
⑤①①口 |--⑤-|
口口口④ |⑥-⑦-|
41
口②③② |①--②|
口③③③ |--③-|
口②③② |----|
①①①口 |----|
42
口口口口 |----|
口口口口 |----|
口口口口 |----|
口口口口 |----|
43
口口口口 |①---|
口①口口 |----|
口口②口 |②---|
口口口口 |----|
44
口口口口 |①---|
口口口口 |----|
口②口口 |----|
口口口① |②---|
45
口口②口 |①---|
口③口口 |----|
口口①口 |②---|
口口口口 |③---|
46
口②口口 |①---|
口口口口 |----|
口口①口 |----|
口口口口 |②---|
47
口口⑧④ |①-②-|
口口⑦③ |③-④-|
口口⑥② |⑤-⑥-|
口口⑤① |⑦-⑧-|
48
⑧④口口 |①-②-|
⑦③口口 |③-④-|
⑥②口口 |⑤-⑥-|
⑤①口口 |⑦-⑧-|
49
⑭⑧①⑤ |①②③④|
⑯④⑨⑪ |⑤⑥⑦⑧|
⑫⑩③⑮ |⑨⑩⑪⑫|
⑥②⑦⑬ |⑬⑭⑮⑯|
50
口⑤⑤① |①②③④|
口口口口 |⑤---|
口口口口
②④③口

口口口口
⑧口口⑥
口⑦⑦口 |⑥--⑦|
⑧口口⑥ |--⑧-|
51
①①①① |①---|
口口口口 |----|
口口口口
口口口口

③③③③
口口口口
口口口口 |②---|
口②②口 |③---|
52
⑧⑧口⑥ |①--②|
③⑨口① |③-④-|
⑤⑦②⑤ |⑤⑥-⑦|
①④口⑨ |⑧-⑨-|
53
⑧⑧口⑥ |①--②|
③⑨口① |③-④-|
⑤⑦②⑤ |⑤⑥-⑦|
①④口⑨ |⑧-⑨-|
54
⑧⑧口⑥ |①--②|
③⑨口① |③-④-|
⑤⑦②⑤ |⑤⑥-⑦|
①④口⑨ |⑧-⑨-|
55
⑦⑤口④ |①--②|
③口⑥① |③-④-|
⑤⑧②口 |⑤--⑥|
①口口口 |⑦-⑧-|
56
⑧⑧口⑥ |①--②|
③⑨口① |③-④-|
⑤⑦②⑤ |⑤⑥-⑦|
①④口⑨ |⑧-⑨-|
57
⑧⑧口⑥ |①--②|
③⑨口① |③-④-|
⑤⑦②⑤ |⑤⑥-⑦|
①④口⑨ |⑧-⑨-|
58
⑦口口⑧ |①--②|
③口④⑥ |③-④-|
⑤口②⑤ |⑤--⑥|
①口①口 |⑦-⑧-|
59
⑦⑧①口 |①--②|
③②⑥口 |③-④-|
⑤①④⑤ |⑤--⑥|
①④②口 |⑦-⑧-|
60
⑧⑧口⑥ |①--②|
③⑨口① |③-④-|
⑤⑦②⑤ |⑤⑥-⑦|
①④口⑨ |⑧-⑨-|
61
⑧⑧口⑥ |①--②|
③⑨口① |③-④-|
⑤⑦②⑤ |⑤⑥-⑦|
①④口⑨ |⑧-⑨-|
62
⑧⑧口⑥ |①--②|
③⑨口① |③-④-|
⑤⑦②⑤ |⑤⑥-⑦|
①④口⑨ |⑧-⑨-|
63
⑦⑤口④ |①--②|
③口⑥① |③-④-|
⑤口②⑧ |⑤--⑥|
①口口口 |⑦-⑧-|
64
口口①口 |①②③④|
④⑧口⑤ |⑤⑥⑦⑧|
口②口口
⑥口⑦③

⑭口口⑨
⑯口⑪口
⑩口口⑬ |⑨⑩⑪⑫|
口⑫口⑮ |⑬⑭⑮⑯|
65
口④①口 |①②③④|
口⑧口⑤ |⑤⑥⑦⑧|
⑥口⑦口
②口③口

⑭口口⑨
⑯口⑪口
口⑫口口 |⑨⑩⑪⑫|
口⑩⑮⑬ |⑬⑭⑮⑯|
66
口①①口 |①-②③|
口口⑤③ |-④⑤-|
口口④②
口口口口

⑩⑩⑩口
⑨⑦口口
⑧⑥口口 |⑥⑦-⑧|
口口口口 |⑨-⑩-|
67
⑯⑫⑪⑩ |①②③④|
⑮⑨⑧⑦ |⑤⑥⑦⑧|
⑭⑥⑤④ |⑨⑩⑪⑫|
⑬③②① |⑬⑭⑮⑯|
68
口口口口 |①---|
口口口口 |----|
口口①① |----|
口口①① |----|

不確定度: 0

最終更新:2017年09月06日 23:02