トキメキメカニクス
ARM×狐夢想 feat. nomico

EXTREME

Level: 10
BPM: 175
Notes: 746

1
口口口口 |----|
口口口口 |----|
口口口口 |----|
口口口口 |----|
2
口口③① |①---|
口口④口 |②---|
口⑤②① |③-④-|
口口口口 |--⑤-|
3
③①口口 |--①-|
口②口口 |②---|
④口口口 |③---|
口口口口 |④---|
4
口口口口 |①---|
①③口口 |②---|
口④口口 |③-④-|
①②⑤口 |--⑤-|
5
口口口③ |--①-|
口口①口 |②---|
口口②口 |③---|
口口口③ |----|
6
口口口口 |----|
口口口口 |----|
口口口口 |----|
口口口口 |----|
7
口③③口 |-①--|
①②②① |-②--|
①②②① |-③--|
口③③口 |----|
8
口口口口 |①---|
口口口① |----|
口口口① |----|
口口口① |----|
9
④口③① |①---|
口②口口 |②---|
口口②口 |③---|
①③口④ |④---|
10
口口口口 |①---|
①口口口 |----|
①口口口 |----|
①口口口 |----|
11
④口③① |①---|
口②口口 |②---|
口口②口 |③---|
①③口④ |④---|
12
口②口⑥ |①-②-|
⑦口口③ |③④-⑤|
⑨⑧④⑤ |-⑥-⑦|
口口①口 |⑧-⑨-|
13
①口口⑥ |①-②-|
⑦口口③ |③④-⑤|
⑨⑧④⑤ |-⑥-⑦|
口②口口 |⑧-⑨-|
14
口②①口 |①-②-|
口④③口 |③-④-|
口⑥⑤口 |⑤-⑥-|
口⑧⑦口 |⑦-⑧-|
15
②口③口 |①②③④|
口⑥口口 |⑤⑥⑦⑧|
⑧口⑦⑤
④口口①

⑯⑭口⑨
⑫口⑪⑬
口⑩口口 |⑨⑩⑪⑫|
口口口⑮ |⑬⑭⑮⑯|
16
口口口口 |①---|
口口口口 |----|
口口口口 |----|
口①①口 |----|
17
口口口口 |----|
口口口口 |----|
口口口口 |----|
口口口口 |----|
18
口口口口 |①-②-|
口①口② |③-④-|
口口口③
口口口④

口口口口
口⑧口口
口⑦⑥口 |⑤-⑥-|
口口⑤口 |⑦-⑧-|
19
口口口口 |①-②-|
口⑦⑤② |③-④-|
口口口③ |⑤-⑥-|
①⑧⑥④ |⑦-⑧-|
20
⑤口①口 |①-②-|
④口口口 |③-④-|
口③⑦口 |⑤---|
②口口⑥ |⑥-⑦-|
21
口口口口 |①-②-|
口口③⑦ |--③-|
②口口④ |④-⑤-|
口①⑤⑥ |⑥-⑦-|
22
④口⑦口 |--①-|
口③⑥口 |②-③-|
②⑤口口 |④-⑤-|
口①口口 |⑥-⑦-|
23
③口⑥④ |--①-|
口②⑦⑤ |②-③-|
口口①口 |④-⑤-|
口口口口 |⑥-⑦-|
24
④⑤口口 |--①-|
口口口口 |②-③-|
⑥口②口 |④-⑤-|
口③口① |--⑥-|
25
口口④⑦ |①-②-|
③①⑥口 |③-④-|
口②口⑤ |--⑤-|
口口口口 |⑥-⑦-|
26
⑥②③⑦ |--①-|
①⑥⑦④ |②-③-|
口口⑤口 |④-⑤-|
口口口口 |⑥-⑦-|
27
⑨⑤④⑧ |--①-|
⑪口口⑩ |②-③-|
③⑦⑥口 |④⑤⑥⑦|
②①口口 |⑧⑨⑩⑪|
28
口口⑤口 |①---|
口口③口 |②---|
⑤③④① |③-④-|
口口①② |⑤---|
29
口③口⑦ |①-②-|
④口口口 |③-④-|
口口口② |⑤-⑥-|
⑤口①⑥ |⑦---|
30
口⑦⑤⑥ |①-②-|
口③④⑤ |③-④-|
①②③⑦ |⑤-⑥-|
口①口口 |⑦---|
31
⑦口④口 |①-②-|
③口口⑤ |③-④-|
口②口口 |⑤-⑥-|
①⑥口口 |⑦---|
32
口口⑤口 |①---|
口口③口 |②---|
⑤③④① |③-④-|
口口①② |⑤---|
33
⑦④口口 |①-②-|
口口口② |③-④-|
口口口口 |⑤-⑥-|
⑤①⑥③ |⑦---|
34
口口①① |①---|
口口②① |----|
②②①① |②---|
口②口口 |----|
35
①口⑩② |①-②-|
口⑥⑤口 |③-④-|
⑩⑧⑦口 |⑤⑥⑦⑧|
④口⑨③ |⑨-⑩-|
36
⑥口⑦④ |①-②-|
口⑤④口 |③-④-|
⑧口口① |⑤-⑥-|
⑧②口③ |⑦-⑧-|
37
口口口④ |①-②-|
口口口口 |③-④-|
口①口④
口口③②

⑥口⑧口
口⑤口⑦
口⑧口口 |⑤-⑥-|
口⑧口口 |⑦-⑧-|
38
④①口② |----|
口④口口 |①---|
口口②① |②---|
口③口口 |③-④-|
39
口口⑧口 |①-②-|
④⑧①口 |③-④-|
⑦②⑥口 |⑤-⑥-|
③口⑤口 |⑦-⑧-|
40
④④口口 |①-②-|
⑥口⑧③ |③-④-|
⑦口口② |⑤-⑥-|
口①⑤⑧ |⑦-⑧-|
41
口口口④ |①-②-|
口③口④ |③-④-|
口①口②
口口口口

口口⑧口
⑥口口口
⑦⑧⑤口 |⑤-⑥-|
口⑧口口 |⑦-⑧-|
42
③①口② |----|
口口口口 |①---|
口口②① |②---|
口口②① |③---|
43
口③④口 |①--②|
口②①口 |--③-|
⑤⑤④③ |-④--|
①②⑥⑥ |⑤-⑥-|
44
④③口④ |①---|
①口口① |②-③-|
口⑦③⑤ |④--⑤|
口②口⑥ |⑥-⑦-|
45
④口口口 |①-②-|
⑤口①③ |③-④⑤|
②口口口 |--⑥-|
⑧⑦⑥口 |⑦-⑧-|
46
口口⑧⑤ |①--②|
⑥②口口 |③-④-|
⑦③口① |⑤--⑥|
口口口④ |⑦-⑧-|
47
③④口口 |①-②-|
口⑤口① |③-④⑤|
口②①口
口口口口

口口口⑧
口口口口
口口⑨⑥ |⑥-⑦-|
⑦口⑥口 |⑧-⑨-|
48
②⑤①口 |①--②|
③⑧④① |③-④-|
⑤口⑥口 |⑤--⑥|
口口⑦④ |⑦-⑧-|
49
⑤口口① |①--②|
口口④⑥ |③-④-|
⑦②口口 |⑤-⑥-|
口③口⑧ |⑦-⑧-|
50
⑨①②⑩ |①②③④|
⑪③④⑫ |⑤⑥⑦⑧|
⑬⑤⑥⑭ |⑨⑩⑪⑫|
⑮⑦⑧⑯ |⑬⑭⑮⑯|
51
⑦①④口 |①②③④|
口⑤②口 |⑤⑥⑦⑧|
口③⑧口
口口⑥口

口⑮口⑩
⑪口口⑭
口口口⑫ |⑨⑩⑪⑫|
⑬⑨口⑯ |⑬⑭⑮⑯|
52
口口口口 |①-②-|
口②③口 |③-④-|
①口④口
口口口口

口口口口
口口口口
⑦口口⑥ |⑤-⑥-|
口⑦⑤口 |--⑦-|
53
口①②口 |--①-|
①口⑤② |--②-|
口④口③ |--③-|
口口③口 |④-⑤-|
54
②口口口 |①-②-|
口③口⑥ |③-④-|
⑦口④⑦ |⑤-⑥-|
①①口⑤ |--⑦-|
55
④⑤口③ |--①-|
⑥⑦①口 |②-③-|
口②⑧⑨ |④⑤⑥⑦|
口①⑩⑪ |⑧⑨⑩⑪|
56
口口③口 |①-②-|
口口④② |③-④-|
口口口口
①①口口

口⑥口⑤
口口口口
⑦⑤口口 |⑤-⑥-|
口⑦口口 |--⑦-|
57
口④②口 |--①-|
④⑥⑤② |--②-|
口⑤③① |③-④-|
口口①口 |⑤-⑥-|
58
②口⑧⑤ |①-②-|
⑧口口⑦ |③-④-|
③⑥口④ |⑤-⑥-|
口⑧①① |⑦-⑧-|
59
③①口③ |--①-|
口②①口 |-②--|
口③②口 |③---|
②⑤④① |④-⑤-|
60
⑤③口口 |①---|
①口口① |②---|
口口②口 |③---|
口口口④ |④-⑤-|
61
口口③⑤ |①---|
②②④口 |--②-|
口⑤口口 |③---|
①①口口 |④-⑤-|
62
④口口⑥ |①---|
口②⑤③ |②-③-|
③口④口 |--④-|
⑥口①① |⑤-⑥-|
63
口口口口 |①---|
口口口口 |--②-|
口①口口
口口②②

口口口⑤
③口④口
口⑤③口 |③---|
口口口口 |④-⑤-|
64
口口口口 |①---|
②②口口 |--②-|
口口口口
①①口口

口③⑤口
口口口口
④口③口 |③---|
口⑤口口 |④-⑤-|
65
⑦口口⑤ |①-②-|
③⑥①口 |③-④-|
口②⑥③ |⑤---|
⑤口④④ |⑥-⑦-|
66
口④口口 |----|
口口②口 |①-②-|
口口口口 |--③-|
口③口① |--④-|
67
口④①口 |----|
口口口口 |----|
②口口口 |----|
口口③口 |①②③④|
68
④⑯⑬⑤ |①②③④|
⑫⑧⑨① |⑤⑥⑦⑧|
⑭⑥⑦⑪ |⑨⑩⑪⑫|
②⑩⑮③ |⑬⑭⑮⑯|
69
③⑩⑪② |①-②-|
⑩⑦⑥④ |③④⑤-|
⑪⑨⑧口 |⑥⑦⑧⑨|
⑤口口① |⑩-⑪-|
70
⑥口⑦④ |①-②-|
⑦⑤④③ |③-④-|
⑧口⑤① |⑤-⑥-|
⑧②①③ |⑦-⑧-|
71
口①口④ |①-②-|
口口③口 |③-④-|
口①口④
口口③②

⑥口⑧口
⑦⑤口⑦
口⑧⑤口 |⑤-⑥-|
口⑧口口 |⑦-⑧-|
72
⑧③口⑤ |①-②-|
口⑧②口 |③-④-|
③口⑤③ |⑤-⑥-|
④⑦⑥① |⑦-⑧-|
73
口⑤⑧口 |①-②-|
④⑧①① |③-④-|
⑦②⑥③ |⑤-⑥-|
③口⑤⑦ |⑦-⑧-|
74
④④口口 |①-②-|
口口①③ |③-④-|
口口口②
③①口口

口口⑦口
⑥口⑧口
⑦口⑤口 |⑤-⑥-|
口口⑤⑧ |⑦-⑧-|
75
③口口④ |①-②-|
口③口④ |③-④-|
口①口②
口①口口

口口⑧口
⑥口⑦口
⑦口⑤口 |⑤-⑥-|
口⑧⑤口 |⑦-⑧-|
76
⑦口口口 |①②③④|
口⑤口⑥ |⑤⑥⑦⑧|
口①⑧④
③口口②

口⑨⑫⑭
⑬口口口
⑪⑮口口 |⑨⑩⑪⑫|
口口⑩⑯ |⑬⑭⑮⑯|
77
口③④口 |①--②|
口②①口 |--③-|
⑤⑤④③ |-④--|
①②⑥⑥ |⑤-⑥-|
78
④③口④ |①---|
①⑥口① |②-③-|
口⑦③⑤ |④--⑤|
②②口⑥ |⑥-⑦-|
79
④口①⑥ |①-②-|
⑤口①③ |③-④⑤|
②口③口 |⑥-⑦-|
⑨⑧⑦口 |⑧-⑨-|
80
⑥⑧口口 |①--②|
⑦②①口 |③-④-|
⑤③口① |⑤--⑥|
口口口④ |⑦-⑧-|
81
⑬⑭①② |①②③④|
⑮⑯③④ |⑤⑥⑦⑧|
⑨⑩⑤⑥ |⑨⑩⑪⑫|
⑪⑫⑦⑧ |⑬⑭⑮⑯|
82
⑤口口① |①---|
口口口口 |②---|
口③口口 |③-④-|
口④②口 |--⑤-|
83
口口口③ |--①-|
口②口口 |②---|
口口口① |③---|
口口口口 |----|
84
口口口口 |----|
口口口口 |----|
口口口口 |----|
口口口口 |----|
85
口口口口 |①-②-③-|
口④①口 |④---|
口③②口 |----|
口口口口 |----|

不確定度: 1

最終更新:2017年09月02日 15:08