Don't Break Me Down
A-One

EXTREME

Level: 9
BPM: 163
Notes: 707

1
口口口口 |----|
口口口口 |----|
口口口口 |----|
口口口口 |----|
2
口②口⑥ |①--②|
口①①口 |--③-|
③口口口 |-④--|
⑤口④口 |⑤-⑥-|
3
⑥口②口 |①--②|
口口口口 |--③-|
口①①③ |-④--|
口④口⑤ |⑤-⑥-|
4
口②口⑥ |①--②|
口①①口 |--③-|
③口口口 |-④--|
⑤口④口 |⑤-⑥-|
5
⑥口②口 |①--②|
口口口口 |--③-|
口①①③ |-④--|
口④口⑤ |⑤-⑥-|
6
口口①③ |①-②-|
②④③① |③-④-|
⑥⑧⑤⑦ |⑤-⑥-|
口口⑦⑤ |⑦-⑧-|
7
口口①③ |①-②-|
②④③① |③-④-|
⑥口⑤口 |⑤-⑥-|
口⑦⑦⑤ |⑦---|
8
③①口口 |①-②-|
①③④② |③-④-|
⑦⑤⑧⑥ |⑤-⑥-|
⑤⑦口口 |⑦-⑧-|
9
③①口口 |①-②-|
①③④② |③-④-|
口⑤口⑥ |⑤-⑥-|
⑤⑦⑦口 |⑦---|
10
口口①③ |①-②-|
②④③① |③-④-|
⑥⑧⑤⑦ |⑤-⑥-|
口口⑦⑤ |⑦-⑧-|
11
口口①③ |①-②-|
②④③① |③-④-|
⑥口⑤口 |⑤-⑥-|
口⑦⑦⑤ |⑦---|
12
③①口口 |①-②-|
①③④② |③-④-|
⑦⑤⑧⑥ |⑤-⑥-|
⑤⑦口口 |⑦-⑧-|
13
③①口口 |①-②-|
①③④② |③-④-|
口⑤口⑥ |⑤-⑥-|
⑤⑦⑦口 |⑦---|
14
①②③口 |①②③④|
⑭⑥⑤④ |⑤⑥⑦⑧|
⑦⑧⑨⑬ |⑨⑩⑪⑫|
口⑫⑪⑩ |⑬-⑭-|
15
①②③口 |①②③④|
口⑥⑤④ |⑤⑥⑦⑧|
⑦⑧⑨口 |⑨⑩⑪⑫|
⑬⑫⑪⑩ |⑬---|
16
口③②① |①②③④|
④⑤⑥⑭ |⑤⑥⑦⑧|
⑬⑨⑧⑦ |⑨⑩⑪⑫|
⑩⑪⑫口 |⑬-⑭-|
17
口③②① |①②③④|
④⑤⑥口 |⑤⑥⑦⑧|
口⑨⑧⑦ |⑨⑩⑪⑫|
⑩⑪⑫⑬ |⑬---|
18
①②③口 |①②③④|
⑭⑥⑤④ |⑤⑥⑦⑧|
⑦⑧⑨⑬ |⑨⑩⑪⑫|
口⑫⑪⑩ |⑬-⑭-|
19
①②③口 |①②③④|
口⑥⑤④ |⑤⑥⑦⑧|
⑦⑧⑨口 |⑨⑩⑪⑫|
⑬⑫⑪⑩ |⑬---|
20
口③②① |①②③④|
④⑤⑥⑭ |⑤⑥⑦⑧|
⑬⑨⑧⑦ |⑨⑩⑪⑫|
⑩⑪⑫口 |⑬-⑭-|
21
口④①① |①--②|
②②④口 |--③-|
口④③③ |④---|
口口④口 |----|
22
②⑤口② |①---|
口③④口 |②---|
口口口口 |③④-⑤|
①口⑥① |--⑥-|
23
口口⑤② |--①-|
⑥口口⑦ |②---|
口③④① |③④-⑤|
口口口口 |-⑥⑦-|
24
②口口② |①---|
口口口口 |②---|
口口口口
口①①口

口⑤口口
口③④口
口口口口 |③④-⑤|
口口⑥口 |--⑥-|
25
⑧⑧口⑦ |--①-|
口②③⑥ |②③-④|
口⑤口口 |-⑤-⑥|
①口口④ |⑦-⑧-|
26
口口⑤口 |①---|
②④③口 |②---|
②口口① |③④-⑤|
口⑥①口 |--⑥-|
27
②⑤口口 |--①-|
⑦口口⑥ |②---|
①④③口 |③④-⑤|
口口口口 |-⑥⑦-|
28
口口口口 |①---|
口口口口 |②---|
②口口①
②口①口

口口⑤口
口④③口
口口口口 |③④-⑤|
口口⑥口 |--⑥-|
29
④口口④ |①②-③|
口口口③ |--④-|
口②①口
口口口口

口口口口
口口口口
⑨⑧⑦⑥ |--⑤-|
⑤口口⑤ |⑥⑦⑧⑨|
30
③口②② |①---|
③①①口 |②-③-|
口口口⑤ |④-⑤-|
④④口⑤ |----|
31
②②口③ |①---|
口口①③ |②-③-|
⑤①口⑥ |④-⑤-|
⑤口④④ |--⑥-|
32
口③口口 |--①-|
口①口③ |②---|
④②④口 |③---|
⑤口⑤口 |④-⑤-|
33
口口口口 |①-②-|
④口③口 |③-④-|
口②口①
口口口口

口口⑥口
口⑤口口
口⑦⑧口 |--⑤-|
口口口口 |⑥-⑦⑧|
34
②②口③ |①---|
口口口③ |②-③-|
⑤口口① |④-⑤-|
⑤口④④ |----|
35
③口②② |①---|
③①口口 |②-③-|
⑥口①⑤ |④-⑤-|
④④口⑤ |--⑥-|
36
口④③口 |--①-|
③口①④ |②---|
口口②口 |③---|
口口口口 |④---|
37
口口口④ |①-②-|
③口口口 |③-④-|
口口口②
①口口口

口口口口
口口口口
口⑤⑤口 |--⑤-|
⑨⑧⑦⑥ |⑥⑦⑧⑨|
38
口②①⑤ |①-②-|
④口⑥③ |③-④-|
②口口① |--⑤-|
口⑦口⑦ |⑥-⑦-|
39
①口②口 |--①-|
⑧⑨⑩⑪ |②-③-|
④⑤⑥⑦ |④⑤⑥⑦|
口口③口 |⑧⑨⑩⑪|
40
①口口② |①-②-|
口⑤⑥口 |③-④-|
⑤⑦⑦⑥ |--⑤-|
③口口④ |⑥-⑦-|
41
口口口口 |①---|
①⑦口② |②---|
口口⑥口 |③④⑤-|
⑤④③口 |⑥-⑦-|
42
⑤①②口 |①-②-|
③⑥口④ |③-④-|
①口口② |--⑤-|
⑦口⑦口 |⑥-⑦-|
43
⑦②口① |--①-|
口口口⑥ |②-③-|
⑤口口口 |④-⑤-|
口③口④ |⑥-⑦-|
44
⑥口口③ |①--②|
②⑥③⑤ |--③-|
④②⑤① |④--⑤|
口④①口 |--⑥-|
45
口②①口 |①--②|
口口③口 |--③-|
口③口口
①口口②

口口口口
④口口④
④口口④ |④---|
⑤⑥⑦⑧ |⑤⑥⑦⑧|
46
①①②② |①---|
口⑤口③ |②---|
④②①③ |③---|
口口口口 |④-⑤-|
47
⑤口③⑤ |--①-|
②口口③ |②-③-|
⑤②①⑤ |④---|
口④④① |⑤---|
48
口口口口 |①-②-|
④口口③ |③-④-|
口口口口
②口口①

⑨口⑤口
口口口口
口口口口 |⑤-⑥⑦|
口⑥⑦⑧ |⑧-⑨-|
49
口口④② |①-②-|
口①①① |③-④-|
③③③口
口口口口

口⑥口口
⑧口口⑦
口口口口 |⑤-⑥-|
⑤⑤⑤⑤ |⑦-⑧-|
50
①口口② |①---|
口②①口 |②---|
口②①口
口口口口

口口口口
口口⑤口
口口口④ |③---|
③口口③ |④-⑤-|
51
③口④⑤ |--①-|
⑤③口④ |②-③-|
①口②⑤ |④---|
⑤①口② |⑤---|
52
口③④口 |①-②-|
⑤⑨口口 |③-④-|
口①②口 |⑤-⑥⑦|
⑧⑦⑥口 |⑧-⑨-|
53
①②②① |①---|
⑥⑦⑧⑨ |②---|
①口口① |③④⑤-|
口⑤④③ |⑥⑦⑧⑨|
54
②②①① |①---|
③口⑤口 |②---|
③①②④ |③---|
口口口口 |④-⑤-|
55
⑤③口⑤ |--①-|
③口口② |②-③-|
⑤①②⑤ |④---|
①④④口 |⑤---|
56
口口口口 |①-②-|
③口口④ |③-④-|
口口口口
①口口②

口⑤口⑨
口口口口
口口口口 |⑤-⑥⑦|
⑧⑦⑥口 |⑧-⑨-|
57
②④口口 |①-②-|
①①①口 |③-④-|
口③③③
口口口口

口口⑥口
⑦口口⑧
口口口口 |⑤-⑥-|
⑤⑤⑤⑤ |⑦-⑧-|
58
②口口① |①---|
口①②口 |②---|
口①②口
口口口口

口口口口
口⑤口口
④口口口 |③---|
③口口③ |④-⑤-|
59
⑤④口③ |--①-|
④口③⑤ |②-③-|
⑤②口① |④---|
②口①⑤ |⑤---|
60
口④③口 |①-②-|
口口⑨⑤ |③-④-|
口②①口 |⑤-⑥⑦|
口⑥⑦⑧ |⑧-⑨-|
61
①②②① |①---|
⑩⑨⑧⑦ |②---|
①口口① |③④⑤⑥|
③④⑤⑥ |⑦⑧⑨⑩|
62
②③③② |①-②-|
口口口口 |--③-|
①口口①
口口口口

口口口口
口口口口
口⑤⑥⑦ |--④-|
口④④口 |⑤⑥⑦-|
63
②⑤口② |①---|
口③④口 |②---|
口口口口 |③④-⑤|
①口⑥① |--⑥-|
64
口口⑤② |--①-|
⑥口口⑦ |②---|
口③④① |③④-⑤|
口口口口 |-⑥⑦-|
65
②口口② |①---|
口口口口 |②---|
口口口口
口①①口

口⑤口口
口③④口
口口口口 |③④-⑤|
口口⑥口 |--⑥-|
66
⑧⑧口⑦ |--①-|
口②③⑥ |②③-④|
口⑤口口 |-⑤-⑥|
①口口④ |⑦-⑧-|
67
口口⑤口 |①---|
②④③口 |②---|
②口口① |③④-⑤|
口⑥①口 |--⑥-|
68
②⑤口口 |--①-|
⑦口口⑥ |②---|
①④③口 |③④-⑤|
口口口口 |-⑥⑦-|
69
口口口口 |①---|
口口口口 |②---|
②口口①
②口①口

口口⑤口
口④③口
口口口口 |③④-⑤|
口口⑥口 |--⑥-|
70
④口口④ |①②-③|
口口口③ |--④-|
口②①口
口口口口

口口口口
口口口口
⑨⑧⑦⑥ |--⑤-|
⑤口口⑤ |⑥⑦⑧⑨|
71
口①①口 |①---|
口①①口 |----|
口口口口 |----|
口口口口 |----|

不確定度: 1

最終更新:2017年08月21日 02:00