Paranoia
DiGiTAL WiNG feat. 花たん

BASIC

Level: 4
BPM: 150
Notes: 389

1
口口口口 |----|
口口口口 |----|
口口口口 |----|
口口口口 |----|
2
口口口口 |①---|
口口口口 |②---|
口口口口 |③---|
①②③④ |④---|
3
口口口口 |①---|
口口口口 |②---|
①②③④ |③---|
口口口口 |④---|
4
口口口口 |①---|
①②③④ |②---|
口口口口 |③---|
口口口口 |④---|
5
①②③④ |①---|
口口口口 |②---|
口口口口 |③---|
口口口口 |④---|
6
④口口口 |①---|
③口口口 |②---|
②口口口 |③---|
①口口口 |④---|
7
口口口④ |①---|
口口口③ |②---|
口口口② |③---|
口口口① |④---|
8
口④口口 |①---|
口③口口 |②---|
口②口口 |③---|
口①口口 |④---|
9
口口口口 |①---|
口口口口 |----|
口口口口 |----|
口①①口 |----|
10
①①②② |①---|
口口口口 |----|
口口口口 |②---|
口口口口 |----|
11
口③口口 |①---|
口②口口 |②---|
口①口口 |③---|
口口口口 |----|
12
口口口口 |①---|
②②①① |----|
口口口口 |②---|
口口口口 |----|
13
口口④④ |①---|
口口③口 |②---|
口口②口 |③---|
口口①口 |④---|
14
①①②② |①---|
口口口口 |----|
口口口口 |②---|
口口口口 |----|
15
口③口口 |①---|
口②口口 |②---|
口①口口 |③---|
口口口口 |----|
16
口口口口 |①---|
②②①① |----|
口口口口 |②---|
口口口口 |----|
17
③③③③ |①---|
口④④口 |②---|
②口口② |③---|
①口口① |④---|
18
③③③③ |①---|
口口④④ |②---|
口②②口 |③---|
口①①口 |④---|
19
口口口口 |①---|
①②口口 |②---|
③④口口 |③---|
口口口口 |④---|
20
口口口口 |①---|
口口②① |②---|
口口④③ |③---|
口口口口 |④---|
21
②口口④ |①---|
口口口口 |②---|
口口口口 |③---|
①口口③ |④---|
22
口口口口 |①---|
①①②② |②---|
③③④④ |③---|
口口口口 |④---|
23
口口口口 |①---|
①②口口 |②---|
③④口口 |③---|
口口口口 |④---|
24
口口口口 |①---|
口口②① |②---|
口口④③ |③---|
口口口口 |④---|
25
②口口④ |①---|
口口口口 |②---|
口口口口 |③---|
①口口③ |④---|
26
口①①口 |①---|
口②②口 |②---|
口③③口 |③---|
口④④口 |④---|
27
口口口口 |①---|
①①②② |----|
口口口口 |②---|
口口口口 |----|
28
①①②② |①---|
口口口口 |----|
口口口口 |②---|
口口口口 |----|
29
口口口口 |①---|
口口口口 |----|
①①②② |②---|
口口口口 |----|
30
口口口口 |①---|
口口口口 |----|
口口口口 |②---|
①①②② |----|
31
口口口口 |①---|
①①②② |----|
口口口口 |②---|
口口口口 |----|
32
①①②② |①---|
口口口口 |----|
口口口口 |②---|
口口口口 |----|
33
口口口口 |①---|
口口口口 |----|
①①②② |②---|
口口口口 |----|
34
口口口口 |①---|
口口口口 |----|
口口口口 |②---|
①①②② |----|
35
口口口口 |①---|
口①①口 |----|
口口口口 |----|
口口口口 |----|
36
口口口口 |①---|
口②口口 |----|
口口口口 |②---|
①口口口 |----|
37
口口①① |①---|
口口口口 |----|
口口②② |②---|
口口口口 |----|
38
口口口口 |①---|
口口②口 |----|
口口口口 |②---|
口口口① |----|
39
①①口口 |①---|
口口口口 |----|
②②口口 |②---|
口口口口 |----|
40
口口口口 |①---|
口②口口 |----|
口口口口 |②---|
①口口口 |----|
41
口口①① |①---|
口口口口 |----|
口口②② |②---|
口口口口 |----|
42
口口口口 |①---|
口口②口 |----|
口口口口 |②---|
口口口① |----|
43
①①口口 |①---|
口口口口 |----|
②②口口 |②---|
口口口口 |----|
44
口口口口 |①---|
④②②④ |②---|
口口口口 |③---|
③①①③ |④---|
45
④②②④ |①---|
口口口口 |②---|
③①①③ |③---|
口口口口 |④---|
46
口口口口 |①---|
④②②④ |②---|
口口口口 |③---|
③①①③ |④---|
47
口④④口 |①---|
口③③口 |②---|
口②②口 |③---|
口①①口 |④---|
48
口口口口 |①---|
④②②④ |②---|
口口口口 |③---|
③①①③ |④---|
49
④②②④ |①---|
口口口口 |②---|
③①①③ |③---|
口口口口 |④---|
50
口口口口 |①---|
④②②④ |②---|
口口口口 |③---|
③①①③ |④---|
51
口④④口 |①---|
口③③口 |②---|
口②②口 |③---|
口①①口 |④---|
52
①口口② |①---|
①口口② |----|
口口口口 |②---|
口口口口 |----|
53
口口口口 |①---|
口①②口 |----|
口①②口 |②---|
口口口口 |----|
54
口口口口 |①---|
口口口口 |----|
①口口② |②---|
①口口② |----|
55
④口口④ |①---|
口③③口 |②---|
口②②口 |③---|
口①①口 |④---|
56
口口口口 |①---|
①口口② |----|
①口口② |②---|
口口口口 |----|
57
口口口口 |①---|
口①②口 |----|
口①②口 |②---|
口口口口 |----|
58
口口口口 |①---|
口口口口 |----|
①口口② |②---|
①口口② |----|
59
④口口④ |①---|
口③③口 |②---|
口②②口 |③---|
口①①口 |④---|
60
③口口④ |①---|
③口口④ |②---|
①口口② |③---|
①口口② |④---|
61
口①②口 |①---|
口①②口 |②---|
口③④口 |③---|
口③④口 |④---|
62
口②④口 |①---|
口②④口 |②---|
①口口③ |③---|
①口口③ |④---|
63
④口口④ |①---|
口③③口 |②---|
口②②口 |③---|
口①①口 |④---|
64
③口口④ |①---|
③口口④ |②---|
①口口② |③---|
①口口② |④---|
65
口①②口 |①---|
口①②口 |②---|
口③④口 |③---|
口③④口 |④---|
66
口②④口 |①---|
口②④口 |②---|
①口口③ |③---|
①口口③ |④---|
67
④③③④ |①---|
口口口口 |②---|
口②②口 |③---|
口①①口 |④---|
68
口口口口 |①---|
口口口口 |②---|
③口口④ |③---|
①口口② |④---|
69
③口口④ |①---|
①口口② |②---|
口口口口 |③---|
口口口口 |④---|
70
口口口口 |①---|
口口口口 |②---|
口③④口 |③---|
口①②口 |④---|
71
口③④④ |①---|
口①②口 |②---|
口口口口 |③---|
口口口口 |④---|
72
口口口④ |①---|
③口口口 |②---|
口口口② |③---|
①口口口 |④---|
73
①口口口 |①---|
口口口② |②---|
③口口口 |③---|
口口口④ |④---|
74
口口④口 |①---|
口③口口 |②---|
口口②口 |③---|
口①口口 |④---|
75
①①口口 |①---|
口口口口 |----|
口口口口 |----|
口口口口 |----|
76
口口口④ |①---|
③口口口 |②---|
口口口② |③---|
①口口口 |④---|
77
口①口口 |①---|
口口②口 |②---|
口③口口 |③---|
口口④口 |④---|
78
口口口口 |①---|
②口口④ |②---|
口口口口 |③---|
①口口③ |④---|
79
口③口口 |①---|
口口口口 |②---|
口口②口 |③---|
口①口口 |----|

不確定度: 1

最終更新:2017年08月21日 02:00