Paranoia
DiGiTAL WiNG feat. 花たん

ADVANCED

Level: 8
BPM: 150
Notes: 733

1
口口口口 |----|
口口口口 |----|
口口口口 |----|
口口口口 |----|
2
⑧口口⑦ |①-②-|
⑥口口⑤ |③-④-|
④口口③ |⑤-⑥-|
②口口① |⑦-⑧-|
3
口⑦⑥⑤ |①-②-|
口④③口 |③-④-|
口②①口 |⑤-⑥-|
口口口口 |⑦---|
4
⑦口口⑧ |①-②-|
⑤口口⑥ |③-④-|
③口口④ |⑤-⑥-|
①口口② |⑦-⑧-|
5
⑤⑥⑦口 |①-②-|
口③④口 |③-④-|
口①②口 |⑤-⑥-|
口口口口 |⑦---|
6
⑧口口⑦ |①-②-|
⑥口口⑤ |③-④-|
④口口③ |⑤-⑥-|
②口口① |⑦-⑧-|
7
口⑦⑥⑤ |①-②-|
口④③口 |③-④-|
口②①口 |⑤-⑥-|
口口口口 |⑦---|
8
⑦口口⑧ |①-②-|
⑤口口⑥ |③-④-|
③口口④ |⑤-⑥-|
①口口② |⑦-⑧-|
9
口口口口 |①---|
口①①口 |----|
口①①口 |----|
口口口口 |----|
10
口③②① |①-②-|
口⑧口口 |③-④-|
口口口口 |⑤-⑥-|
④⑤⑥⑦ |⑦-⑧-|
11
②②口口 |①---|
口口口口 |②---|
口口①①
口口口口

口口口口
口④③口
口③④口 |③--④|
口口口口 |----|
12
①④口① |①-②-|
口口③口 |③-④-|
口口口口
口②口口

⑧口口口
口⑥口口
口口⑦口 |⑤-⑥-|
⑤口口⑤ |⑦-⑧-|
13
④③③口 |①---|
④口口口 |②---|
②口⑤② |③---|
口①①口 |④-⑤-|
14
口③④口 |①-②-|
口③④口 |③-④-|
口口口口
①①②②

⑦口口口
⑦口口口
⑤⑤⑥⑥ |⑤-⑥-|
口口口⑧ |⑦-⑧-|
15
口①口口 |①-②-|
口口②口 |③-④-|
口口口④
口③口口

⑥⑥⑤⑤
口口口口
口口口口 |⑤--⑥|
口口口口 |----|
16
⑤⑤口口 |①-②-|
①口④口 |③-④-|
①③口⑥ |⑤-⑥-|
⑦口②⑧ |⑦-⑧-|
17
口④①⑦ |①-②-|
⑥①口③ |③-④-|
②口①⑦ |⑤---|
⑥①⑤口 |⑥-⑦-|
18
⑥④⑤口 |①-②-|
⑥②①③ |③-④-|
③①②口 |⑤---|
口⑤④口 |⑥---|
19
口⑦⑧口 |①-②-|
口③④口 |③-④-|
口①②口 |⑤-⑥-|
⑤口口⑥ |⑦-⑧-|
20
②口口② |①--②|
口口口口 |--③-|
口口口口
③①①③

口④④口
口⑤口口
口口口口 |-④--|
口口⑥口 |⑤-⑥-|
21
③口口⑧ |①-②-|
②⑨⑩⑦ |③-④⑤|
①⑤④⑥ |⑥-⑦-|
口口口口 |⑧-⑨⑩|
22
②②④④ |①--②|
⑤口口⑤ |--③-|
⑤口口⑤ |-④--|
①①③③ |⑤---|
23
口⑦⑧口 |①-②-|
口③④口 |③-④-|
口①②口 |⑤-⑥-|
⑤口口⑥ |⑦-⑧-|
24
②口口② |①--②|
口口口口 |--③-|
口口口口
③①①③

口④④口
口⑤口口
口口口口 |-④--|
口口⑥口 |⑤-⑥-|
25
③口口⑧ |①-②-|
②⑨⑩⑦ |③-④⑤|
①⑤④⑥ |⑥-⑦-|
口口口口 |⑧-⑨⑩|
26
③③③③ |①---|
④④④④ |②---|
②②②② |③---|
①①①① |④---|
27
⑥④⑤口 |①②③-|
口口口口 |④⑤-⑥|
口口口口
①②③口

口口口⑧
⑦口口⑨
口口口口 |-⑦-⑧|
⑩口口口 |-⑨-⑩|
28
⑨口口⑦ |①②③④|
口⑥⑤⑪ |⑤⑥-⑦|
④③②① |-⑧-⑨|
⑩口口⑧ |-⑩-⑪|
29
⑥④⑤口 |①②③-|
口口口口 |④⑤-⑥|
①②③口
口口口口

口口口⑧
⑦口口⑨
口⑩口口 |-⑦-⑧|
口口口口 |-⑨-⑩|
30
⑨口口⑦ |①②③④|
口⑥⑤⑪ |⑤⑥-⑦|
⑩口口⑧ |-⑧-⑨|
④③②① |-⑩-⑪|
31
⑥④⑤口 |①②③-|
口口口口 |④⑤-⑥|
口口口口
①②③口

口口口⑧
⑦口口⑨
口口口口 |-⑦-⑧|
⑩口口口 |-⑨-⑩|
32
⑨口口⑦ |①②③④|
口⑥⑤⑪ |⑤⑥-⑦|
④③②① |-⑧-⑨|
⑩口口⑧ |-⑩-⑪|
33
⑥④⑤口 |①②③-|
口口口口 |④⑤-⑥|
①②③口
口口口口

口口口⑧
⑦口口⑨
口⑩口口 |-⑦-⑧|
口口口口 |-⑨-⑩|
34
⑨口口⑦ |①②③④|
口⑥⑤⑪ |⑤⑥-⑦|
⑩口口⑧ |-⑧-⑨|
④③②① |-⑩-⑪|
35
口口口口 |①---|
口①①口 |----|
口①①口 |----|
口口口口 |----|
36
①口口口 |①---|
口口口口 |②-③-|
口③②口
口口口口

⑤口口④
口口口口
口口口口 |--④-|
口口口口 |--⑤-|
37
口口口口 |--①-|
口①①口 |----|
口③③口 |②---|
口②②口 |③---|
38
⑤④⑤① |①---|
口口③口 |②-③-|
口口口口 |--④-|
②口口口 |--⑤-|
39
口口口口 |--①-|
口②口② |--②-|
③口③口 |--③-|
口①口① |----|
40
口口口① |①---|
口口③口 |②-③-|
口口口口
口②口口

④口口⑤
口口口口
口口口口 |--④-|
口口口口 |--⑤-|
41
口口口口 |--①-|
口口口口 |----|
③①①③ |②---|
②口口② |③---|
42
④①①口 |①---|
口口口口 |②-③-|
口口③口 |--④-|
口②口口 |----|
43
④④口口 |①-②-|
②口③① |--③-|
②③口① |--④-|
口口④④ |----|
44
⑦⑦③③ |①-②-|
口④⑧口 |③-④-|
口⑥②口 |⑤-⑥-|
①①⑤⑤ |⑦-⑧-|
45
⑦⑦③③ |①-②-|
口④⑧口 |③-④-|
口⑥②口 |⑤-⑥-|
①①⑤⑤ |⑦-⑧-|
46
⑦⑦③③ |①-②-|
口④⑧口 |③-④-|
口⑥②口 |⑤-⑥-|
①①⑤⑤ |⑦-⑧-|
47
⑤⑤②② |①---|
④④口口 |②---|
③③口口 |③-④-|
①①口口 |⑤---|
48
⑦⑦③③ |①-②-|
口④⑧口 |③-④-|
口⑥②口 |⑤-⑥-|
①①⑤⑤ |⑦-⑧-|
49
⑦⑦③③ |①-②-|
口④⑧口 |③-④-|
口⑥②口 |⑤-⑥-|
①①⑤⑤ |⑦-⑧-|
50
⑦⑦③③ |①-②-|
口④⑧口 |③-④-|
口⑥②口 |⑤-⑥-|
①①⑤⑤ |⑦-⑧-|
51
口口②② |①---|
③④④③ |②---|
③④④③ |③---|
①①口口 |④---|
52
口③②① |①-②-|
口⑧口口 |③-④-|
口口口口 |⑤-⑥-|
④⑤⑥⑦ |⑦-⑧-|
53
②②口口 |①---|
口口口口 |②---|
口口①①
口口口口

口口口口
口④③口
口③④口 |③--④|
口口口口 |----|
54
①④口① |①-②-|
口口③口 |③-④-|
口口口口
口②口口

⑧口口口
口⑥口口
口口⑦口 |⑤-⑥-|
⑤口口⑤ |⑦-⑧-|
55
④③③口 |①---|
④口口口 |②---|
②口⑤② |③---|
口①①口 |④-⑤-|
56
口③④口 |①-②-|
口③④口 |③-④-|
口口口口
①①②②

⑦口口口
⑦口口口
⑤⑤⑥⑥ |⑤-⑥-|
口口口⑧ |⑦-⑧-|
57
口①口口 |①-②-|
口口②口 |③-④-|
口口口④
口③口口

⑥⑥⑤⑤
口口口口
口口口口 |⑤--⑥|
口口口口 |----|
58
⑤⑤口口 |①-②-|
①口④口 |③-④-|
①③口⑥ |⑤-⑥-|
⑦口②⑧ |⑦-⑧-|
59
⑥④①口 |①-②-|
⑥①口③ |③-④-|
②口①口 |⑤---|
口①⑤口 |⑥---|
60
口③②① |①-②-|
口⑧口口 |③-④-|
口口口口 |⑤-⑥-|
④⑤⑥⑦ |⑦-⑧-|
61
②②口口 |①---|
口口口口 |②---|
口口①①
口口口口

口口口口
口④③口
口③④口 |③--④|
口口口口 |----|
62
①④口① |①-②-|
口口③口 |③-④-|
口口口口
口②口口

⑧口口口
口⑥口口
口口⑦口 |⑤-⑥-|
⑤口口⑤ |⑦-⑧-|
63
④③③口 |①---|
④口口口 |②---|
②口⑤② |③---|
口①①口 |④-⑤-|
64
口③④口 |①-②-|
口③④口 |③-④-|
口口口口
①①②②

⑦口口口
⑦口口口
⑤⑤⑥⑥ |⑤-⑥-|
口口口⑧ |⑦-⑧-|
65
口①口口 |①-②-|
口口②口 |③-④-|
口口口④
口③口口

⑥⑥⑤⑤
口口口口
口口口口 |⑤--⑥|
口口口口 |----|
66
⑤⑤口口 |①-②-|
①口④口 |③-④-|
①③口⑥ |⑤-⑥-|
⑦口②⑧ |⑦-⑧-|
67
⑥④①口 |①-②-|
⑥①口③ |③-④-|
②口①口 |⑤---|
口①⑤口 |⑥---|
68
口⑦⑧口 |①-②-|
口③④口 |③-④-|
口①②口 |⑤-⑥-|
⑤口口⑥ |⑦-⑧-|
69
②口口② |①--②|
口口口口 |--③-|
口口口口
③①①③

口④④口
口⑤口口
口口口口 |-④--|
口口⑥口 |⑤-⑥-|
70
③口口⑧ |①-②-|
②⑨⑩⑦ |③-④⑤|
①⑤④⑥ |⑥-⑦-|
口口口口 |⑧-⑨⑩|
71
②②④④ |①--②|
⑤口口⑤ |--③-|
⑤口口⑤ |-④--|
①①③③ |⑤---|
72
口⑦⑧口 |①-②-|
口③④口 |③-④-|
口①②口 |⑤-⑥-|
⑤口口⑥ |⑦-⑧-|
73
②口口② |①--②|
口口口口 |--③-|
口口口口
③①①③

口④④口
口⑤口口
口口口口 |-④--|
口口⑥口 |⑤-⑥-|
74
③口口⑧ |①-②-|
②⑨⑩⑦ |③-④⑤|
①⑤④⑥ |⑥-⑦-|
口口口口 |⑧-⑨⑩|
75
口⑤④口 |①-②-|
③口口口 |③-④⑤|
口口②口
口①口口

⑥口口口
口口口口
⑪⑩⑨⑧ |⑥-⑦-|
口口⑦口 |⑧⑨⑩⑪|
76
口③②① |①-②-|
口⑧口口 |③-④-|
口口口口 |⑤-⑥-|
④⑤⑥⑦ |⑦-⑧-|
77
②②口口 |①---|
口口口口 |②---|
口口①①
口口口口

口口口口
口④③口
口③④口 |③--④|
口口口口 |----|
78
⑤⑤口口 |①-②-|
①口④口 |③-④-|
①③口⑥ |⑤-⑥-|
⑦口②⑧ |⑦-⑧-|
79
口④①口 |①-②-|
口①口③ |③-④-|
②口①口 |⑤---|
口①⑤口 |----|

不確定度: 1

最終更新:2017年08月21日 02:00