Paranoia
DiGiTAL WiNG feat. 花たん

EXTREME

Level: 9
BPM: 150
Notes: 965

1
口口口口 |----|
口口口口 |----|
口口口口 |----|
口口口口 |----|
2
①⑫⑪口 |①-②③|
⑧口④⑦ |④⑤⑥-|
③⑤⑬② |⑦⑧⑨⑩|
⑩口⑥⑨ |⑪⑫⑬-|
3
①⑦⑧口 |①-②③|
⑦⑨④⑧ |④⑤⑥-|
③⑤⑨② |⑦-⑧-|
口口⑥口 |⑨---|
4
①⑫⑪口 |①-②③|
⑧口④⑦ |④⑤⑥-|
③⑤⑬② |⑦⑧⑨⑩|
⑩口⑥⑨ |⑪⑫⑬-|
5
①⑦⑧口 |①-②③|
⑦⑨④⑧ |④⑤⑥-|
③⑤⑨② |⑦-⑧-|
口口⑥口 |⑨---|
6
①⑫⑪① |①-②③|
⑧口④⑦ |④⑤⑥-|
③⑤⑬② |⑦⑧⑨⑩|
⑩口⑥⑨ |⑪⑫⑬-|
7
①⑦⑧口 |①-②③|
⑦⑨④⑧ |④⑤⑥-|
③⑤⑨② |⑦-⑧-|
口口⑥口 |⑨---|
8
①⑫⑪口 |①-②③|
⑧口④⑦ |④⑤⑥-|
③⑤⑬② |⑦⑧⑨⑩|
⑩口⑥⑨ |⑪⑫⑬-|
9
①口口① |①---|
口①①口 |----|
口口口口 |----|
口口口口 |----|
10
④⑦口① |①-②-|
⑦③⑥口 |③-④-|
②⑥③⑤ |⑤-⑥-|
口②⑤⑧ |⑦-⑧-|
11
口口②② |①---|
口④③② |②---|
①③④口 |③--④|
①①口口 |----|
12
②⑧⑦① |①-②-|
④⑥③口 |③-④-|
口③⑤④ |⑤-⑥-|
①口口② |⑦-⑧-|
13
口口口口 |①---|
口口口口 |②---|
②②②口
口①①①

③④口③
④③③⑤
⑥口口口 |③---|
口口口口 |④-⑤⑥|
14
⑦⑦③③ |①-②-|
⑤⑥⑧⑧ |③-④-|
⑥⑤④④ |⑤-⑥-|
②②①① |⑦-⑧-|
15
口口口② |①-②-|
③口口口 |③-④-|
口④④②
③①①口

⑤口⑤口
口口口口
口口口口 |⑤--⑥|
口⑥口⑥ |----|
16
⑦①⑥③ |①-②-|
①④口⑧ |③-④-|
口口口⑤ |⑤-⑥-|
②口⑤口 |⑦-⑧-|
17
口③口口 |①-②-|
①③②口 |③-④-|
①口②口
①④口④

⑤口⑤口
⑥口⑦口
⑥口⑦口 |⑤---|
⑥口⑦口 |⑥-⑦-|
18
⑥①口② |①---②③④⑤|
⑦①口③ |----⑥⑦⑧⑨|
⑧①口④
⑨口口⑤

口⑩⑩口
口口口口
口口口口 |----|
口⑩⑩口 |⑩---|
19
口口口口 |①-②③|
⑥①①口 |④-⑤⑥|
口④③②
⑤口口口

口⑩口口
口口口⑨
⑧⑫口口 |-⑦⑧⑨|
口口⑦⑪ |⑩-⑪⑫|
20
③④②① |①--②|
⑤③①口 |--③-|
④口口② |-④--|
口口⑥口 |⑤-⑥-|
21
④⑩①① |①-②-|
⑧⑧②② |③-④⑤|
⑦⑦③③ |⑥-⑦-|
⑥⑥⑨⑤ |⑧-⑨⑩|
22
口口⑤⑤ |①--②|
口口②① |--③-|
④③①② |-④--|
③④⑤⑤ |⑤---|
23
口口口口 |①-②③|
⑥①①口 |④-⑤⑥|
口④③②
⑤口口口

口⑩口口
口口口⑨
⑧⑫口口 |-⑦⑧⑨|
口口⑦⑪ |⑩-⑪⑫|
24
③④②① |①--②|
⑤③①口 |--③-|
④口口② |-④--|
口口⑥口 |⑤-⑥-|
25
④⑩①① |①-②-|
⑧⑧②② |③-④⑤|
⑦⑦③③ |⑥-⑦-|
⑥⑥⑨⑤ |⑧-⑨⑩|
26
④口口① |①---|
④④①① |②---|
③③②② |③---|
③口口② |④---|
27
⑧⑧③② |①②③-|
口⑥口① |④⑤-⑥|
口⑩口④ |-⑦-⑧|
⑦⑤⑨⑨ |-⑨-⑩|
28
⑨⑨③② |①②③④|
口⑤⑦① |⑤⑥-⑦|
⑥⑪口口 |-⑧-⑨|
⑧④⑩⑩ |-⑩-⑪|
29
口口口④ |①②③-|
口⑥③② |④⑤-⑥|
口口口①
口⑤口口

⑧⑧口口
⑩口⑨⑨
口口口口 |-⑦-⑧|
⑦口口口 |-⑨-⑩|
30
⑦⑦口口 |①②③④|
口⑤口口 |⑤⑥-⑦|
⑥口③②
口④口①

口口口口
⑨口⑧口
口⑪口口 |-⑧-⑨|
口口⑧⑩ |-⑩-⑪|
31
⑧⑧③② |①②③-|
口⑥口① |④⑤-⑥|
口⑩口④ |-⑦-⑧|
⑦⑤⑨⑨ |-⑨-⑩|
32
⑨⑨③② |①②③④|
口⑤⑦① |⑤⑥-⑦|
⑥⑪口口 |-⑧-⑨|
⑧④⑩⑩ |-⑩-⑪|
33
口口口④ |①②③-|
口⑥③② |④⑤-⑥|
口口口①
口⑤口口

⑧⑧口口
⑩口⑨⑨
口口口口 |-⑦-⑧|
⑦口口口 |-⑨-⑩|
34
⑦⑦口口 |①②③④|
口⑤口口 |⑤⑥-⑦|
⑥口③②
口④口①

口口口口
⑨口⑧口
口⑪口口 |-⑧-⑨|
口口⑧⑩ |-⑩-⑪|
35
②口口① |①-②-|
口口口口 |③-④⑤|
口口⑤口
口④③口

口⑧口口
口⑥⑨口
口⑩口⑦ |⑥-⑦-|
口口⑪口 |⑧⑨⑩⑪|
36
⑥口口口 |①---|
④口⑦③ |②-③-|
②口②口 |④-⑤-|
①口⑤口 |⑥-⑦-|
37
口①③④ |①-②-|
④④口⑤ |③---|
⑤⑤口口 |④---|
口②口口 |⑤---|
38
①口⑦⑦ |①---|
口③⑤口 |②-③-|
口口口① |④-⑤-|
②⑥④② |⑥-⑦-|
39
⑦口口口 |①-②-|
⑤④④口 |③-④-|
③口②② |⑤-⑥-|
①口⑥⑥ |⑦---|
40
口①②口 |①---|
②口口① |②-③-|
口口口①
口③口口

⑦⑦口④
口口口⑥
口⑤口口 |④-⑤-|
口口口口 |⑥-⑦-|
41
口口口口 |①-②-|
口口②口 |③---|
口口口①
口口口③

口口口口
④④口口
口口⑤⑤ |④---|
口⑤④口 |⑤---|
42
⑥口⑤② |①---|
④口③口 |②-③-|
②口口口 |④-⑤-|
①口口① |⑥---|
43
口④口口 |①-②-|
④②口① |--③-|
口③③④ |--④-|
口②④① |----|
44
口口④④ |①-②③|
口③⑤口 |④-⑤⑥|
口⑥②口
①①口口

⑩⑩口口
口⑪口⑨
⑧口⑫口 |⑦-⑧⑨|
口口⑦⑦ |⑩-⑪⑫|
45
⑩⑩④④ |①-②③|
③⑪⑤⑨ |④-⑤⑥|
⑧⑥⑫② |⑦-⑧⑨|
①①⑦⑦ |⑩-⑪⑫|
46
口口④④ |①-②③|
③口⑤口 |④-⑤⑥|
口⑥口②
①①口口

⑩⑩口口
⑪口口⑨
⑧口口⑫ |⑦-⑧⑨|
口口⑦⑦ |⑩-⑪⑫|
47
⑤口②① |①---|
口口口④ |②---|
④③口口 |③-④-|
①②③⑤ |⑤---|
48
口口④④ |①-②③|
口③⑤口 |④-⑤⑥|
口⑥②口
①①口口

⑩⑩口口
口⑪口⑨
⑧口⑫口 |⑦-⑧⑨|
口口⑦⑦ |⑩-⑪⑫|
49
⑩⑩④④ |①-②③|
③⑪⑤⑨ |④-⑤⑥|
⑧⑥⑫② |⑦-⑧⑨|
①①⑦⑦ |⑩-⑪⑫|
50
口口④④ |①-②③|
③口⑤口 |④-⑤⑥|
口⑥口②
①①口口

⑩⑩口口
⑪口口⑨
⑧口口⑫ |⑦-⑧⑨|
口口⑦⑦ |⑩-⑪⑫|
51
口口口① |①---|
口②口口 |②---|
口口②口
①口口口

③③口口
④口④口
口④口口 |③---|
④口③③ |④---|
52
④⑦口① |①-②-|
⑦③⑥口 |③-④-|
②⑥③⑤ |⑤-⑥-|
口②⑤⑧ |⑦-⑧-|
53
口口②② |①---|
口④③② |②---|
①③④口 |③--④|
①①口口 |----|
54
②⑧⑦① |①-②-|
④⑥③口 |③-④-|
口③⑤④ |⑤-⑥-|
①口口② |⑦-⑧-|
55
口口口口 |①---|
口口口口 |②---|
②②②口
口①①①

③④口③
④③③⑤
⑥口口口 |③---|
口口口口 |④-⑤⑥|
56
⑦⑦③③ |①-②-|
⑤⑥⑧⑧ |③-④-|
⑥⑤④④ |⑤-⑥-|
②②①① |⑦-⑧-|
57
口口口② |①-②-|
③口口口 |③-④-|
口④④②
③①①口

⑤口⑤口
口口口口
口口口口 |⑤--⑥|
口⑥口⑥ |----|
58
⑦①⑥③ |①-②-|
①④口⑧ |③-④-|
口口口⑤ |⑤-⑥-|
②口⑤口 |⑦-⑧-|
59
口③口口 |①-②-|
①③②口 |③-④-|
①口②口
①④口④

⑤口⑤口
⑥口口口
口⑥口口 |⑤---|
⑥口⑥口 |⑥---|
60
④⑦口① |①-②-|
⑦③⑥口 |③-④-|
②⑥③⑤ |⑤-⑥-|
口②⑤⑧ |⑦-⑧-|
61
口口②② |①---|
口④③② |②---|
①③④口 |③--④|
①①口口 |----|
62
②⑧⑦① |①-②-|
④⑥③口 |③-④-|
口③⑤④ |⑤-⑥-|
①口口② |⑦-⑧-|
63
口口口口 |①---|
口口口口 |②---|
②②②口
口①①①

③④口③
④③③⑤
⑥口口口 |③---|
口口口口 |④-⑤⑥|
64
⑦⑦③③ |①-②-|
⑤⑥⑧⑧ |③-④-|
⑥⑤④④ |⑤-⑥-|
②②①① |⑦-⑧-|
65
口口口② |①-②-|
③口口口 |③-④-|
口④④②
③①①口

⑤口⑤口
口口口口
口口口口 |⑤--⑥|
口⑥口⑥ |----|
66
⑦①⑥③ |①-②-|
①④口⑧ |③-④-|
口口口⑤ |⑤-⑥-|
②口⑤口 |⑦-⑧-|
67
口③口口 |①-②-|
①③②口 |③-④-|
①口②口
①④口④

⑤口⑤口
⑥口口口
口口口口 |⑤---|
口口⑥口 |⑥---|
68
口口口口 |①-②③|
⑥①①口 |④-⑤⑥|
口④③②
⑤口口口

口⑩口口
口口口⑨
⑧⑫口口 |-⑦⑧⑨|
口口⑦⑪ |⑩-⑪⑫|
69
③④②① |①--②|
⑤③①口 |--③-|
④口口② |-④--|
口口⑥口 |⑤-⑥-|
70
④⑩①① |①-②-|
⑧⑧②② |③-④⑤|
⑦⑦③③ |⑥-⑦-|
⑥⑥⑨⑤ |⑧-⑨⑩|
71
口口⑤⑤ |①--②|
口口②① |--③-|
④③①② |-④--|
③④⑤⑤ |⑤---|
72
口口口口 |①-②③|
⑥①①口 |④-⑤⑥|
口④③②
⑤口口口

口⑩口口
口口口⑨
⑧⑫口口 |-⑦⑧⑨|
口口⑦⑪ |⑩-⑪⑫|
73
③④②① |①--②|
⑤③①口 |--③-|
④口口② |-④--|
口口⑥口 |⑤-⑥-|
74
④⑩①① |①-②-|
⑧⑧②② |③-④⑤|
⑦⑦③③ |⑥-⑦-|
⑥⑥⑨⑤ |⑧-⑨⑩|
75
②⑪口① |①-②-|
⑥口⑩⑦ |③-④⑤|
口⑨⑤口 |⑥-⑦-|
④口⑧③ |⑧⑨⑩⑪|
76
④⑦口① |①-②-|
⑦③⑥口 |③-④-|
②⑥③⑤ |⑤-⑥-|
口②⑤⑧ |⑦-⑧-|
77
口口②② |①---|
口④③② |②---|
①③④口 |③--④|
①①口口 |----|
78
口①⑥③ |①-②-|
①④口⑧ |③-④-|
口⑦口⑤ |⑤-⑥-|
②口⑤口 |⑦-⑧-|
79
⑤③⑤口 |①-②-|
①③②口 |③-④-|
①口②口 |⑤---|
①④口④ |----|

不確定度: 1

最終更新:2017年08月21日 01:59