Sulk
SYUNN

EXTREME

Level: 9
BPM: 150
Notes: 1000

1
口口口口 |----|
口口口口 |----|
口口口口 |----|
口口口口 |----|
2
②口口 |①---|
口口口 |----|
口口口 |②---|
口口口 |----|
3
口口 |①---|
口口 |----|
口口 |②---|
口口 |----|
4
口口② |①---|
口口口 |----|
口口口 |②---|
口 |----|
5
口口 |①---|
口口口 |----|
口口口 |②---|
口口② |----|
6
口⑦口⑧ |①②③④|
口⑤口⑥ |⑤⑥⑦⑧|
①②③④
口口口

⑮口⑯口
⑬口⑭口
口口口口 |⑨⑩⑪⑫|
⑨⑩⑪⑫ |⑬⑭⑮⑯|
7
⑮⑦⑯⑧ |①②③④|
⑬⑤⑭⑥ |⑤⑥⑦⑧|
①②③④ |⑨⑩⑪⑫|
⑨⑩⑪⑫ |⑬⑭⑮⑯|
8
⑮⑦⑯⑧ |①②③④|
⑬⑤⑭⑥ |⑤⑥⑦⑧|
①②③④ |⑨⑩⑪⑫|
⑨⑩⑪⑫ |⑬⑭⑮⑯|
9
口⑦口⑧ |①②③④|
口⑤口⑥ |⑤⑥⑦⑧|
①②③④
口口口口

⑪口⑭口
口口⑩口
⑬⑮口口 |⑨⑩⑪⑫|
⑨口⑯⑫ |⑬⑭⑮⑯|
10
口⑥口口 |①②③-|
①②⑤口 |④⑤⑥⑦|
⑦口口④
口③口口

口口⑨⑧
⑩⑪口口
口口⑫⑬ |--⑧⑨|
口口口口 |⑩⑪⑫⑬|
11
①口④口 |①--②|
口口⑤① |③-④⑤|
口③口口
口②口口

口口口⑥
⑨口口⑩
⑦口口口 |--⑥⑦|
⑪口口⑧ |⑧⑨⑩⑪|
12
⑤⑤④口 |①②③④|
口口③口 |--⑤-|
口②口口
口①口口

口口口⑦
口口⑧口
口⑧⑥⑥ |-⑥--|
⑦口口口 |⑦-⑧-|
13
⑪⑥③⑭ |①②③④|
②⑫⑬⑤ |⑤⑥⑦⑧|
口⑩⑦口 |-⑨⑩-|
⑧④⑨① |⑪⑫⑬⑭|
14
口口⑥口 |①②③-|
口口口口 |④⑤⑥-|
口⑤②①
口③④口

⑩口口口
口口⑦口
口口⑪口 |--⑦⑧|
⑧⑫口⑨ |⑨⑩⑪⑫|
15
口口③① |①--②|
④②口① |--③④|
口②口口
口口口口

口⑨口⑧
口口⑤口
⑦⑪口⑩ |⑤-⑥⑦|
口口口⑥ |⑧⑨⑩⑪|
16
②口③口 |①②③④|
口口⑤口 |--⑤-|
口口口口
④口①口

⑧口口⑧
口⑥口口
口口口口 |-⑥--|
口⑦⑦口 |⑦-⑧-|
17
口⑥①口 |①②③④|
口口⑤口 |⑤⑥⑦⑧|
②④口⑦
⑧口口③

⑩口口口
口⑨口⑪
⑭口⑫口 |-⑨⑩-|
口⑬口口 |⑪⑫⑬⑭|
18
⑥③②① |①②③-|
⑧⑦口口 |④-⑤-|
口⑤口口 |⑥-⑦-|
④⑨口口 |⑧-⑨-|
19
⑩口⑦⑩ |--①②|
⑦⑧⑥⑤ |③④⑤⑥|
③④⑨⑧ |⑦-⑧-|
⑨口②① |⑨-⑩-|
20
口口⑨⑧ |--①-|
⑥⑦①口 |②-③-|
⑩②⑤④ |④⑤⑥⑦|
口口③口 |⑧⑨⑩-|
21
口⑥口口 |--①②|
口⑤④口 |③④⑤⑥|
口②③口
口①口口

口口口⑦
⑧口口口
口口口口 |⑦-⑧-|
口⑪⑩⑨ |⑨⑩⑪-|
22
①⑥②⑤ |①-②-|
⑧③⑦④ |③-④-|
口⑩口⑨ |--⑤⑥|
口口口口 |⑦⑧⑨⑩|
23
⑬⑥⑪⑧ |--①②|
口⑤⑫⑦ |③④⑤⑥|
②⑨④口 |⑦⑧⑨⑩|
①⑩③口 |⑪⑫⑬-|
24
口⑥口口 |--①②|
口⑤口口 |③④⑤⑥|
②口④口
①口③口

⑨口口⑧
⑪口口⑦
口⑩口⑩ |⑦⑧⑨-|
⑪口口口 |⑩-⑪-|
25
口②①⑦ |--①②|
⑧④③口 |③④⑤⑥|
口⑥⑤⑨ |⑦-⑧-|
⑩口口口 |⑨-⑩-|
26
①①④口 |①--②|
⑤⑤①② |③-④-|
③③⑧口 |⑤⑥--|
⑦⑦⑦⑥ |⑦-⑧-|
27
①①④口 |①--②|
⑤⑤①② |③-④-|
③③⑧口 |⑤⑥--|
⑦⑦⑦⑥ |⑦-⑧-|
28
①①④口 |①--②|
⑤⑤①② |③-④-|
③③⑧口 |⑤⑥--|
⑦⑦⑦⑥ |⑦-⑧-|
29
①①④口 |①--②|
⑤⑤①② |③-④-|
③③⑧口 |⑤⑥--|
⑦⑦⑦⑥ |⑦-⑧-|
30
①②⑤口 |①-②③|
⑥⑧①③ |④-⑤-|
④⑤⑩口 |⑥⑦⑧-|
⑨⑩⑨⑦ |⑨-⑩-|
31
①②⑤口 |①-②③|
⑥⑧①③ |④-⑤-|
④⑤⑩口 |⑥⑦⑧-|
⑨⑩⑨⑦ |⑨-⑩-|
32
口⑥③① |①②③④|
口⑧⑤口 |⑤⑥⑦⑧|
②④口口
口口口⑦

⑩口口⑮
⑭口口⑪
口口口⑬ |⑨⑩⑪⑫|
⑯⑫⑨口 |⑬⑭⑮⑯|
33
②① |①②③④|
④③ |⑤⑥⑦⑧|
⑥⑤ |⑨---|
口⑧⑦口

口口口口
⑩口口⑩
口口
口口口口 |⑩---|
34
④②①④ |①②③-|
口⑦③⑥ |④-⑤-|
⑨口⑧口 |⑥-⑦-|
⑤口口⑤ |⑧-⑨-|
35
⑦口⑤⑩ |--①②|
口④⑥口 |③④⑤⑥|
⑨③口⑧ |⑦-⑧-|
口口②① |⑨-⑩-|
36
口①口⑧ |--①-|
⑦③②④ |②-③-|
⑨口①⑩ |④⑤⑥⑦|
⑤②③⑥ |⑧⑨⑩-|
37
口⑧⑦口 |--①②|
⑧⑥⑤⑦ |③④⑤⑥|
⑩④③⑨ |⑦-⑧-|
⑩②①⑨ |⑨-⑩-|
38
②口③① |①-②-|
口④口③ |③-④-|
口②①口
口④口口

⑩口口⑦
⑥口口口
口口口⑨ |--⑤⑥|
⑧口口⑤ |⑦⑧⑨⑩|
39
口口口口 |--①②|
⑤⑥口口 |③④⑤⑥|
①②④口
口口③口

口口⑫⑧
口口⑪⑦
口⑬口口 |⑦⑧⑨⑩|
⑨⑩口口 |⑪⑫⑬-|
40
④口口口 |--①②|
③口口口 |③④⑤⑥|
口口⑥⑤
口口②①

口⑨⑨口
口⑩⑩口
口⑧口口 |⑦⑧⑨-|
⑪⑦口⑪ |⑩-⑪-|
41
⑥口口③ |--①②|
②⑦⑦⑤ |③④⑤⑥|
④⑧⑧① |⑦-⑧-|
⑨⑩⑪⑫ |⑨⑩⑪⑫|
42
口⑤④口 |--①-|
①③②口 |②③④⑤|
①口口口
口口口口

⑦口口⑥
⑪口口⑩
口口口口 |--⑥⑦|
口⑨⑧口 |⑧⑨⑩⑪|
43
口口③口 |①--②|
口④口口 |③④⑤⑥|
口②①⑤
⑥口口口

⑧⑫口⑦
口口⑨⑬
⑩⑭口口 |⑦⑧⑨⑩|
口口⑪口 |⑪⑫⑬⑭|
44
口口③口 |①②③④|
②⑤口口 |--⑤-|
口口口口
⑤④口①

口⑦口⑥
口口口口
口口⑦⑥ |-⑥--|
口⑧⑧口 |⑦-⑧-|
45
口口⑤口 |①②③④|
⑥④口① |⑤⑥⑦⑧|
②口口⑦
⑧口口③

⑬⑨口⑩
口口口口
口⑮⑫口 |-⑨⑩⑪|
口⑪口⑭ |⑫⑬⑭⑮|
46
口⑦④口 |①②③-|
②⑤⑥① |④⑤⑥⑦|
口口口口
口口③口

口口口⑧
⑪口口⑫
⑨口口口 |--⑧⑨|
⑬口口⑩ |⑩⑪⑫⑬|
47
③④口口 |①--②|
口①②口 |--③④|
口②①口
口口口口

口口⑤口
⑪口口⑧
⑦口⑩口 |⑤-⑥⑦|
口⑨口⑥ |⑧⑨⑩⑪|
48
④口口① |①②③④|
口②⑤口 |--⑤-|
口口口③
口口口⑤

口⑥口⑧
口⑦口口
口⑥⑦口 |-⑥--|
⑧口口口 |⑦-⑧-|
49
②口口口 |①②③④|
口⑧③⑦ |⑤⑥⑦⑧|
⑥口口①
口④口⑤

⑪⑪⑪⑪
口口口口
口口⑩口 |-⑨⑩-|
口口⑨口 |⑪---|
50
口口口口 |①-|
①口口口

口口口口

口口口口 |②-|
口口口② |③-④-|
口口口
③④口②

口口口口

口口口口 |⑤-|
口口口口

口口口口
口口
口 |⑥-|
口口口口

口口⑧口
口口口口
口口
口口⑦口 |⑦-⑧-|
51
口口口口 |①-|
口口
口口
口口

|②-|
口③ |③-④-|
口口口口
口口口②

口⑧口
口口⑨口
⑦⑥⑩口 |⑤⑥⑦⑧|
口口口口 |-⑨-⑩|
52
口口口口 |①-|

口口口口
口口口口

口口口② |②-|
口口 |③-④-|
口口口②
③口口④

口口口
口口口
口口口 |⑤-|
口口口口

口口
口口
口口 |⑥-|
口口口口

口口
口口口口
口口⑧口
口⑦口口 |⑦-⑧-|
53
口口口口 |①-|

口口口口
口口口口

⑥⑦⑧② |②-|
口⑤⑤ |③-④-|
③口口④ |⑤--⑥|
口⑤⑤口 |-⑦-⑧|
54
口口口口 |①-|
口口口口

①口口口

|②-|
③口④② |③-④-|
口口口 |⑤-|
口口口②

口口口
口口口口
|⑥-|
口口口口

口口口口
口口口口
口口口
口⑧⑦口 |⑦-⑧-|
55
口口口 |①-|
口口
口口
口口口口

口②口 |②-|
口口⑤ |③-④⑤|
口③口
口口口

⑨口口口
⑩⑥口
⑪口⑧⑦ |⑥⑦⑧⑨|
口口口口 |-⑩-⑪|
56
口口口口 |①-|
口口口口
口口口口


口②③④ |②-|
口口口口 |③-④-|
口②口口
口口

口口口口
口口口
口口口 |⑤-|
口口口

口口口口
口口
口口口 |⑥-|
口口

口口口口
口⑦
口口口口
口口⑧口 |⑦-⑧-|
57
口口 |①-|
口口
口口
口口

口口口口 |-②|
|--③-|
口口口②
口口

口口④⑤
口口口
口口口口 |④⑤-⑥|
⑦口口⑥ |--⑦-|
58
口①口口 |①-②-|
①口②口 |③④⑤⑥|
口④③②
口⑥⑤口

⑩⑩⑦⑦
口⑧口⑪
⑫口口⑬ |⑦⑧⑨⑩|
⑭口口⑨ |⑪⑫⑬⑭|
59
口 |①-|


口口口口

⑤口⑥④ |②-|
⑤⑦③口 |③-④-|
⑩ |⑤-⑥⑦|
⑨②口⑧ |⑧⑨⑩⑪|
60
口⑥口③ |①-②-|
④口①口 |③④⑤⑥|
口②①口
口②⑤口

⑩口⑦口
口⑩⑪⑦
⑫口口⑬ |⑦⑧⑨⑩|
⑧⑭口⑨ |⑪⑫⑬⑭|
61
口 |①-|


口口口口

口②口口 |②-|
口口口口 |③-④-|

③口④口

⑤口口口
口⑦⑥口
⑤⑪口⑩ |⑤-⑥⑦|
口⑨口⑧ |⑧⑨⑩⑪|
62
口 |①-|

口口口口
口口口口

口④③ |②-|
口口口 |③-④-|
④口③口
②口口口

⑧口⑧口
口口⑦口
口⑥口口 |⑤-⑥⑦|
口⑤⑤口 |--⑧-|
63
口口口口 |①-|


口口口口

口口口口 |②-|
④口口 |③-④-|
口④③
②口口③

口⑥口⑤
口⑦口口
口口口⑨ |⑤-⑥⑦|
口⑧⑧口 |-⑧-⑨|
64
口 |①-|
口口口口

口口口口

口口口 |②-|
口口②口 |③-④-|
④③口
④口口③

口口口
口口口
口口口口 |⑤-|
口口口口

口口
口口
口口口口 |⑥-|
口口口口

口口
⑦⑧口口
口口口口
口口口口 |⑦-⑧-|
65
⑥口口口 |①---②③④⑤|
口口口① |⑥---⑦⑧⑨⑩|
⑩⑨⑧⑦
②③④⑤

口口口口
⑭⑫⑪⑬
口口口口 |⑪-⑫-|
口⑯⑮口 |⑬⑭⑮⑯|
66
⑥③②① |①②③-|
⑧⑦口口 |④-⑤-|
口⑤口口 |⑥-⑦-|
④⑨口口 |⑧-⑨-|
67
⑩口⑦⑩ |--①②|
⑦⑧⑥⑤ |③④⑤⑥|
③④⑨⑧ |⑦-⑧-|
⑨口②① |⑨-⑩-|
68
口口⑨⑧ |--①-|
⑥⑦①口 |②-③-|
⑩②⑤④ |④⑤⑥⑦|
口口③口 |⑧⑨⑩-|
69
口⑥口⑦ |--①②|
⑧⑤④口 |③④⑤⑥|
口②③⑨ |⑦-⑧-|
⑩①口口 |⑨-⑩-|
70
①⑥②⑤ |①-②-|
⑧③⑦④ |③-④-|
口⑩口⑨ |--⑤⑥|
口口口口 |⑦⑧⑨⑩|
71
⑬⑥⑪⑧ |--①②|
口⑤⑫⑦ |③④⑤⑥|
②⑨④口 |⑦⑧⑨⑩|
①⑩③口 |⑪⑫⑬-|
72
口⑥口口 |--①②|
口⑤口口 |③④⑤⑥|
②口④口
①口③口

⑨口口⑧
⑪口口⑦
口⑩口⑩ |⑦⑧⑨-|
⑪口口口 |⑩-⑪-|
73
口②①⑦ |--①②|
⑧④③口 |③④⑤⑥|
口⑥⑤⑨ |⑦-⑧-|
⑩口口口 |⑨-⑩-|
74
口⑥口口 |①②③-|
⑦③②① |④-⑤-|
⑤⑧口口 |⑥-⑦-|
⑨④口口 |⑧-⑨-|
75
⑩⑥⑧⑦ |--①②|
⑩②③口 |③④⑤⑥|
口⑨①⑪ |⑦⑧⑨-|
口④⑤⑪ |⑩-⑪-|
76
⑨口口④ |--①-|
⑤①口⑧ |②-③-|
⑦口②⑩ |④⑤⑥⑦|
口③口⑥ |⑧⑨⑩-|
77
口②⑦⑦ |--①②|
⑪⑥③口 |③④⑤⑥|
⑧⑧①⑩ |⑦-⑧-|
⑨④⑤口 |⑨⑩⑪-|
78
②⑥③⑤ |①-②-|
⑩②⑨③ |③-④-|
④⑧①⑦ |--⑤⑥|
口④口① |⑦⑧⑨⑩|
79
⑥⑩③⑦ |--①②|
口②⑪口 |③④⑤⑥|
④⑧⑬⑨ |⑦⑧⑨⑩|
⑫口①⑤ |⑪⑫⑬-|
80
口口口口 |--①②|
④口⑥⑤ |③④⑤⑥|
③口口口
口口②①

口⑧口⑨
口⑦口口
口口口⑪ |⑦⑧⑨-|
⑩⑩口⑪ |⑩-⑪-|
81
⑩⑥⑦口 |--①②|
⑩②③⑦ |③④⑤⑥|
⑧④①⑨ |⑦-⑧-|
口⑧⑤⑨ |⑨-⑩-|

不確定度: 1

最終更新:2017年08月20日 14:45