恋のメリーゴーランド
森野くま子

EXTREME

Level: 8
BPM: 195
Notes: 673

1
口口口口 |----|
口口口口 |----|
口口口口 |----|
口口口口 |----|
2
①口口口 |①---|
口②③② |②---|
①⑤口⑤ |③---|
口④③④ |④-⑤-|
3
②①③① |--①-|
口⑤口⑤ |--②-|
②⑥③⑥ |③-④-|
口④口④ |⑤-⑥-|
4
口①口① |①---|
④⑤②口 |②---|
③口③口 |③---|
④⑤②口 |④-⑤-|
5
口②口② |--①-|
口口口① |--②-|
口口口口 |----|
口口口① |----|
6
①口口口 |①---|
口②③② |②---|
①⑤口⑤ |③---|
口④③④ |④-⑤-|
7
②①③① |--①-|
口⑤口⑤ |--②-|
②⑥③⑥ |③-④-|
口④口④ |⑤-⑥-|
8
口①口① |①---|
口口②口 |②---|
③④③④ |③---|
口口②口 |④---|
9
口口口口 |----|
口口口口 |----|
口口口口 |----|
口口口口 |----|
10
⑥口口③ |--①-|
口口口口 |②-③-|
口⑤②口 |--④-|
①口口④ |⑤-⑥-|
11
⑥口口③ |--①-|
口⑤②口 |②-③-|
①口口④ |--④-|
口口口口 |⑤-⑥-|
12
⑥口口③ |--①-|
①⑤②④ |②-③-|
口口口口 |--④-|
口口口口 |⑤-⑥-|
13
⑥⑦⑦⑥ |①-②-|
口⑤⑤口 |③-④-|
③①①③ |--⑤-|
②④④② |⑥-⑦-|
14
口口口口 |--①-|
⑥口口③ |②-③-|
口⑤②口 |--④-|
①口口④ |⑤-⑥-|
15
⑥口口③ |--①-|
口⑤②口 |②-③-|
①口口④ |--④-|
口口口口 |⑤-⑥-|
16
⑥口口③ |--①-|
①⑤②④ |②-③-|
口口口口 |--④-|
口口口口 |⑤-⑥-|
17
⑦口口⑥ |①---|
口⑤④③ |②---|
②②②② |③④⑤-|
①①①① |⑥-⑦-|
18
口口口口 |--①-|
口口口口 |②-③-|
⑤③⑥② |--④-|
①①④④ |⑤-⑥-|
19
⑤③⑥② |--①-|
①①④④ |②-③-|
口口口口 |--④-|
口口口口 |⑤-⑥-|
20
口口口口 |--①-|
口③⑥口 |--②-|
⑤口口② |③-④-|
①①④④ |⑤-⑥-|
21
①②②① |①---|
口⑤口④ |②---|
口口口口 |--③-|
③③口口 |④-⑤-|
22
口⑥口⑤ |--①-|
②口③口 |②-③-|
④④口口 |--④-|
口口①① |⑤-⑥-|
23
②⑤③口 |--①-|
④口⑥① |②-③-|
口口①① |--④-|
口口口口 |⑤-⑥-|
24
④口②口 |--①-|
口③口① |②-③-|
⑦⑤⑤⑦ |④-⑤-|
⑥口口⑥ |⑥-⑦-|
25
口②②口 |①---|
口口口④ |②---|
口⑤③口 |--③-|
口①①口 |④-⑤-|
26
④⑤⑤④ |①---|
⑥③①⑥ |②-③-|
②口口口 |--④-|
口口口口 |⑤-⑥-|
27
口口口口 |①---|
口口⑤口 |--②-|
②④口② |--③-|
①口③① |④-⑤-|
28
②①④② |①---|
③⑤口③ |②-③-|
口口⑥口 |--④-|
口口口口 |⑤-⑥-|
29
口口口口 |①---|
口口口口 |②-③-|
③口口③ |----|
②①口② |----|
30
口口⑥口 |①---|
口⑤口③ |②-③-|
④口②口 |--④-|
口①口口 |⑤-⑥-|
31
①口口① |①---|
口⑥口口 |②-③-|
口③⑤口 |--④-|
口口②④ |⑤-⑥-|
32
①①①① |①---|
口口口口 |----|
口口口口 |----|
口口口口 |----|
33
口口口口 |----|
③③③③ |----|
②②②② |--①-|
口①①口 |②-③-|
34
①口口① |①---|
口口口口 |--②-|
口口口口 |----|
②口口② |----|
35
①①①① |--①-|
②②②③ |②-③-|
⑤口③④ |----|
④③口⑤ |④-⑤-|
36
③⑤④② |①---|
②④⑤③ |②-③-|
口①口口 |--④-|
口口①口 |--⑤-|
37
口口口口 |--①-|
口口口口 |--②-|
口②②口 |----|
口①①口 |----|
38
口③口口 |①---|
②口口① |②-③-|
①⑤⑤② |--④-|
④口③④ |--⑤-|
39
①口口② |--①-|
①①②② |--②-|
口口③④ |----|
④③口口 |③-④-|
40
②③④⑤ |①---|
⑤④③② |②-③-|
①口口口 |--④-|
口口口① |--⑤-|
41
口口口口 |--①-|
口口口口 |--②-|
口②②口 |----|
口①①口 |----|
42
①①口口 |①---|
口②②② |----|
口口口口 |②---|
口口口口 |----|
43
④口口③ |①---|
③口口④ |--②-|
口①①① |----|
口②口② |③-④-|
44
口①口口 |①---|
口口①口 |②-③-|
③口口③
②口口②

口⑤④口
口④⑤口
口口口口 |--④-|
口口口口 |--⑤-|
45
口口口口 |--①-|
口口口口 |--②-|
口②②口 |----|
口①①口 |----|
46
口③口口 |①---|
②口口① |②-③-|
①⑤⑤② |--④-|
④口③④ |--⑤-|
47
①口口② |--①-|
①①②② |--②-|
④口口③ |----|
③口口④ |③-④-|
48
③⑤④② |①---|
②④⑤③ |②-③-|
口①口口 |--④-|
口口①口 |--⑤-|
49
口口口口 |--①-|
口口口口 |--②-|
④②②④ |③---|
③①①③ |④---|
50
口口①① |①---|
②②②口 |----|
口口口口 |②---|
口口口口 |----|
51
口口口口 |①---|
口口口口 |--②-|
①①①口 |----|
②口②口 |----|
52
口口口口 |--①-|
③口⑤口 |②---|
②④⑥口 |-③--④-|
口①口口 |⑤-⑥---|
53
①②②① |--①-|
④口口④ |②-③-|
③口口③ |④---|
⑤口口⑤ |⑤---|
54
口口③① |①-②-|
口④②口 |③-④-|
⑤口⑥口 |--⑤-|
口口⑥口 |--⑥-|
55
②③④⑤ |--①-|
⑦口⑥口 |----|
口口口① |②③④⑤|
口口口① |⑥-⑦-|
56
口⑥口口 |①-②-|
口⑥口⑤ |③-④-|
口②④口 |--⑤-|
①③口口 |--⑥-|
57
①口口口 |--①-|
①口口口 |----|
口口③③ |②---|
口口②② |③---|
58
口口③① |①-②-|
口④②口 |③-④-|
⑤口⑥口 |--⑤-|
口口⑥口 |--⑥-|
59
②③④⑤ |--①-|
⑦口⑥口 |----|
口口口① |②③④⑤|
口口口① |⑥-⑦-|
60
口⑥口口 |①-②-|
口⑥口⑤ |③-④-|
口②④口 |--⑤-|
①③口口 |--⑥-|
61
①口口口 |--①-|
①口口口 |----|
③口口② |----|
②口口③ |②-③-|
62
③⑤④② |①---|
②④⑤③ |②-③-|
口①口口 |--④-|
口口①口 |--⑤-|
63
④口口③ |--①-|
口口口口 |--②-|
口②②口 |③---|
口①①口 |④---|
64
口③①口 |①---|
②①口口 |②-③-|
口⑤⑤② |--④-|
④口③④ |--⑤-|
65
①口口② |--①-|
①①②② |--②-|
④口口③ |----|
③口口④ |③-④-|
66
③⑤④② |①---|
②④⑤③ |②-③-|
口①口口 |--④-|
口口①口 |--⑤-|
67
口口口口 |--①-|
口口口口 |--②-|
④②②口 |③---|
③①①③ |④---|
68
口②口② |①---|
①②②② |----|
口②口② |②---|
口口口口 |----|
69
③口口④ |①---|
④口口③ |--②-|
①口①口 |----|
口②口② |③-④-|
70
口①口口 |①---|
口口①口 |②-③-|
③口②口
口②口③

口⑤④口
口④⑤口
口口口口 |--④-|
口口口口 |--⑤-|
71
口口口口 |--①-|
口口口口 |--②-|
口②②口 |③---|
③①①④ |④---|
72
①①口口 |①---|
口②④③ |②-③-|
口②④③ |--④-|
口⑤口⑤ |--⑤-|
73
①①②② |--①-|
口口口口 |--②-|
④口口③ |----|
③口口④ |③-④-|
74
③⑤④② |①---|
②④⑤③ |②-③-|
口①口口 |--④-|
口口①口 |--⑤-|
75
口口口口 |--①-|
口口口口 |--②-|
口②②口 |----|
口①①口 |----|
76
②②①① |①---|
②口口① |----|
口口口口 |②---|
口口口口 |----|
77
口口口口 |①---|
口口口口 |----|
①口口② |②---|
①①②② |----|
78
口①①口 |----|
口口口② |①---|
口口③口 |---②-③|
口口④口 |-④----|
79
①②②① |--①-|
④口口④ |②-③-|
③口口③ |④---|
⑤口口⑤ |⑤---|
80
口口③① |①-②-|
口④②口 |③-④-|
⑤口⑥口 |--⑤-|
口口⑥口 |--⑥-|
81
②③④⑤ |--①-|
⑦口⑥口 |----|
口口口① |②③④⑤|
口口口① |⑥-⑦-|
82
口⑥口口 |①-②-|
口⑥口⑤ |③-④-|
口②④口 |--⑤-|
①③口口 |--⑥-|
83
①口口口 |--①-|
①口口口 |----|
口口③③ |②---|
口口②② |③---|
84
口口③① |①-②-|
口④②口 |③-④-|
⑤口⑥口 |--⑤-|
口口⑥口 |--⑥-|
85
②③④⑤ |--①-|
⑦口⑥口 |----|
口口口① |②③④⑤|
口口口① |⑥-⑦-|
86
口⑥口口 |①-②-|
口⑥口⑤ |③-④-|
口②④口 |--⑤-|
①③口口 |--⑥-|
87
①口口口 |--①-|
①口口口 |----|
口口口口 |----|
口口口口 |----|
88
④④口口 |①-②-|
③⑤⑤⑤ |③-④-|
口⑥⑥⑥ |--⑤-|
②口①口 |--⑥-|
89
口口口口 |--①-|
口口口口 |----|
口口口口 |----|
口①口① |----|


不确定度: 0

最終更新:2012年11月11日 16:37