Jazz is Rad
ARM(IOSYS)+Brasscapsule

ADVANCED

Level: 9
BPM: 160
Notes: 761

1
口口口口 |----|
口口口口 |----|
口口口口 |----|
①②③④ |①②③④|
2
①口②② |①②--|
口口③③ |③--④|
口口④④ |----|
⑧⑦⑥⑤ |⑤⑥⑦⑧|
3
②②口① |①②--|
③③口口 |③--④|
④④口口 |----|
⑤⑥⑦⑧ |⑤⑥⑦⑧|
4
①口②② |①②--|
口口③③ |③--④|
口口④④ |----|
⑧⑦⑥⑤ |⑤⑥⑦⑧|
5
②②口① |①②--|
③③口口 |③--④|
④④口口
口口口口

口⑩⑨口
口口口口
口口口口 |-⑤⑥⑦|
⑧⑥⑤⑦ |⑧⑨⑩-|
6
①⑤⑤② |-①--|
口①②口 |②--③|
③④口③ |----|
④口口口 |④--⑤|
7
口口口口 |----|
②口①② |①--②|
③口口① |----|
④③口④ |③--④|
8
④口①④ |----|
②口口② |①--②|
③④④① |----|
口③口口 |③--④|
9
口口口口 |----|
口口口口 |----|
口口口口 |----|
口口口口 |----|
10
口口口口 |----|
口口口口 |----|
口口口口 |----|
口口口口 |----|
11
⑦⑧⑨口 |①②③④|
⑦⑧⑨口 |-⑤⑥⑦|
⑤①②⑥ |--⑧-|
口③④口 |-⑨--|
12
口⑨⑧⑦ |①②③④|
口⑨⑧⑦ |-⑤⑥⑦|
⑥②①⑤ |--⑧-|
口④③口 |-⑨--|
13
⑦⑧⑨口 |①②③④|
⑦⑧⑨口 |-⑤⑥⑦|
⑤①②⑥ |--⑧-|
口③④口 |-⑨--|
14
⑦⑨⑨口 |①-②-③-|
⑦⑧⑧口 |④-⑤-⑥-|
④①⑤⑥ |⑦--⑧|
①④②③ |--⑨-|
15
⑦⑧⑨口 |①②③④|
⑦⑧⑨口 |-⑤⑥⑦|
⑤①②⑥ |--⑧-|
口③④口 |-⑨--|
16
口⑨⑧⑦ |①②③④|
口⑨⑧⑦ |-⑤⑥⑦|
⑥②①⑤ |--⑧-|
口④③口 |-⑨--|
17
⑤⑪⑧口 |①②③④|
口口⑫⑥ |-⑤⑥⑦|
⑦③④口 |--⑧-⑨-|
①⑨⑩② |⑩-⑪-⑫-|
18
③口口④ |①--②|
①⑤⑥② |----|
⑦口口⑧ |③④⑤⑥|
①⑨⑩② |⑦⑧⑨⑩|
19
⑥②②口 |--①-|
口⑤口口 |--②-|
口①①口 |③④-⑤|
③口口④ |--⑥-|
20
口③②⑨ |①---|
口口口⑧ |②③④⑤|
口⑤④⑦ |⑥-⑦-|
口口①⑥ |⑧-⑨-|
21
④④⑤⑤ |--①-|
口口口口 |-②--|
②②③③ |③--④|
口①①口 |--⑤-|
22
口口口⑧ |①---|
口①①⑦ |-②③④|
口②口⑥ |⑤-⑥-|
口④③⑤ |⑦-⑧-|
23
⑥②②口 |--①-|
口⑤口口 |--②-|
口①①口 |③④-⑤|
③口口④ |--⑥-|
24
口②②口 |①---|
口口口口 |②--③|
③口口③
口①①口

口口口口
口口口口
口口口口 |----|
④⑤⑥⑦ |④⑤⑥⑦|
25
①口②② |①②--|
口口③③ |③--④|
口口④④ |----|
⑧⑦⑥⑤ |⑤⑥⑦⑧|
26
②②口① |①②--|
③③口口 |③--④|
④④口口 |----|
⑤⑥⑦⑧ |⑤⑥⑦⑧|
27
①口②② |①②--|
口口③③ |③--④|
口口④④ |----|
⑧⑦⑥⑤ |⑤⑥⑦⑧|
28
②②口① |①②--|
③③口口 |③--④|
④④口口 |----|
口口口口 |----|
29
①②③④ |①②③④|
⑤⑥⑦⑧ |⑤⑥⑦⑧|
⑨⑩⑪⑫ |⑨⑩⑪⑫|
⑬⑭⑮⑯ |⑬⑭⑮⑯|
30
①口口口 |----|
⑥口⑦口 |①---|
口④口⑤ |②-③-④-|
②口③口 |⑤-⑥-⑦-|
31
口①③② |①-②③|
口口口口 |----|
口④⑤口 |----|
口⑥⑦口 |④⑤⑥⑦|
32
口③④② |①-②-|
口⑤⑥口 |③④⑤⑥|
口口口口 |----|
①⑧⑦口 |--⑦⑧|
33
⑨口⑧⑦ |①②③-|
④⑤⑥口 |-④⑤⑥|
口③②① |---⑦|
口口口口 |⑧-⑨-|
34
⑫口⑬⑪ |①②③④|
⑩⑥⑤⑨ |--⑤⑥|
⑧口口⑦ |⑦⑧⑨⑩|
④③②① |⑪⑫⑬-|
35
⑭⑩⑪⑮ |①②③④|
⑫⑥⑦⑬ |⑤-⑥⑦|
⑧①②⑨ |⑧⑨⑩⑪|
⑤③④口 |⑫⑬⑭⑮|
36
⑦口口口 |①②--|
口⑨⑧口 |----|
口①②口 |③④⑤⑥|
③④⑤⑥ |⑦-⑧⑨|
37
口口④③ |①②-③|
口口口口 |④---|
口②①口
口口口口

口口口口
口口口口
⑨⑩⑪口 |⑤⑥⑦⑧|
⑤⑥⑦⑧ |⑨⑩⑪-|
38
①口③口 |①--②|
口②口口 |--③-|
④口口⑤ |----|
⑥口口⑦ |④⑤⑥⑦|
39
口①⑤④ |①--②|
②③口⑧ |③--④|
⑥⑦口口 |⑤--⑥|
口口口口 |⑦-⑧-|
40
口口口④ |①-②③|
②③口口 |-④--|
口口口口 |----|
口①口口 |----|
41
①口口口 |-①--|
口口口口 |②--③|
口口口口
口③口②

⑨口口⑧
⑪⑤④⑩
口⑦⑥口 |④⑤⑥⑦|
口口口口 |⑧⑨⑩⑪|
42
口②①口 |①②③④|
口口口口 |⑤⑥⑦⑧|
⑧口口⑦
④⑥⑤③

口口⑭⑫
口⑩⑨口
口口⑪口 |⑨⑩⑪-|
口口口⑬ |⑫-⑬-⑭-|
43
口口口口 |①---|
口④③① |----|
⑦口⑤口 |②-③④|
②口⑥口 |⑤-⑥⑦|
44
③③口② |①-②-|
④⑤⑥口 |③---|
口口口① |----|
口口口口 |④⑤⑥-|
45
③⑤④② |①-②③|
⑧口口⑦ |④⑤⑥-|
⑩口⑥⑨ |⑦⑧⑨⑩|
①口口⑪ |⑪---|
46
②④③① |①②③④|
口⑥⑤口 |⑤⑥⑦⑧|
口⑧⑦口
口口口口

口口口⑫
⑪口口口
⑬口口口 |⑨⑩⑪-|
口⑩⑨口 |⑫-⑬-|
47
②口口口 |①---|
口⑤④③ |②-③④|
口口口口 |⑤---|
⑥口口① |---⑥|
48
⑥口口⑦ |①--②|
④⑤口口 |③--④|
口口③② |⑤-⑥-|
口①口口 |--⑦-|
49
⑦口口⑧ |①--②|
⑨⑩口⑥ |③---|
⑤口③② |④⑤⑥⑦|
①口口④ |⑧-⑨⑩|
50
⑤口口⑥ |----|
⑦口口⑧ |----|
口①②口 |①②③④|
口③④口 |⑤⑥⑦⑧|
51
口①②口 |①②③④|
口③④口 |⑤⑥⑦⑧|
⑤口口⑥
⑦口口⑧

⑬⑮⑯⑭
口口口口
口⑨⑩口 |⑨⑩⑪⑫|
口⑪⑫口 |⑬⑭⑮⑯|
52
口口口口 |①②③④|
①③④② |⑤⑥⑦⑧|
⑤口口⑥
⑦口口⑧

口口⑮口
⑬口口⑭
口⑨⑩口 |⑨⑩⑪⑫|
口⑪⑫口 |⑬⑭-⑮|
53
①口口② |--①-|
⑦③④口 |②-③-|
口口口⑧ |④-⑤⑥|
⑤⑥口口 |-⑦-⑧|
54
口④口② |①-②-|
口口口口 |③-④-|
③口①口 |----|
口口口口 |----|
55
⑫⑪⑩⑨ |①②③④|
④③②① |⑤⑥⑦⑧|
⑧⑦⑥⑤ |⑨⑩⑪⑫|
⑯⑮⑭⑬ |⑬⑭⑮⑯|
56
⑩口口⑨ |①②③④|
④③②① |⑤⑥⑦⑧|
⑧⑦⑥⑤ |⑨-⑩-|
口口⑪口 |--⑪-|
57
⑤②口④ |①-②-|
⑦口口⑧ |③-④-|
⑨口⑥⑩ |⑤--⑥|
口①口③ |⑦⑧⑨⑩|
58
口口口口 |①②③④|
口①②口 |⑤⑥⑦⑧|
口⑦⑧口
⑤③④⑥

⑨⑪⑫⑩
⑬⑮⑯⑭
口口口口 |⑨⑩⑪⑫|
口口口口 |⑬⑭⑮⑯|
59
⑨口口⑩ |----|
口口口口 |①②③④|
⑤⑥⑦⑧ |⑤⑥⑦⑧|
①②③④ |⑨-⑩-|
60
⑦②④口 |①-②-|
口①③口 |③-④-|
口口口口 |⑤⑥-⑦|
⑤⑥口口 |----|
61
口口口① |--①-|
口口③口 |--②-|
②④⑤口 |③--④|
口⑥口口 |⑤--⑥|
62
②口口③ |①-②-|
口口口口 |③-④-|
口口口口 |⑤---|
④口①⑤ |----|
63
口①④口 |①--②|
①⑤⑤④ |--③-|
③口口② |-④--|
口③②口 |⑤---|
64
⑦⑧⑨口 |①②③④|
⑦⑧⑨口 |-⑤⑥⑦|
⑤①②⑥ |--⑧-|
口③④口 |-⑨--|
65
口⑨⑧⑦ |①②③④|
口⑨⑧⑦ |-⑤⑥⑦|
⑥②①⑤ |--⑧-|
口④③口 |-⑨--|
66
⑦⑧⑨口 |①②③④|
⑦⑧⑨口 |-⑤⑥⑦|
⑤①②⑥ |--⑧-|
口③④口 |-⑨--|
67
⑦⑨⑨口 |①-②-③-|
⑦⑧⑧口 |④-⑤-⑥-|
④①⑤⑥ |⑦--⑧|
①④②③ |--⑨-|
68
⑦⑧⑨口 |①②③④|
⑦⑧⑨口 |-⑤⑥⑦|
⑤①②⑥ |--⑧-|
口③④口 |-⑨--|
69
口⑨⑧⑦ |①②③④|
口⑨⑧⑦ |-⑤⑥⑦|
⑥②①⑤ |--⑧-|
口④③口 |-⑨--|
70
⑤⑪⑧口 |①②③④|
口口⑫⑥ |-⑤⑥⑦|
⑦③④口 |--⑧-⑨-|
①⑨⑩② |⑩-⑪-⑫-|
71
④口口⑤ |①--②|
①⑥⑥② |--③-|
④③③⑤ |④--⑤|
①口口② |--⑥-|
72
④口口⑤ |①--②|
①⑥⑥② |--③-|
④③③⑤ |④--⑤|
①口口② |--⑥-|
73
⑥①①⑥ |①--②|
③口口② |--③-|
口⑤④口 |-④--|
②④⑤③ |⑤--⑥|
74
口②②口 |--①-|
口口口口 |-②--|
①口口① |③---|
口③③口 |----|
75
①口口① |----|
口①①口 |①---|
口①①口 |----|
②③④⑤ |②③④⑤--|
76
口①口口 |----①-|
③口②④ |②---③-|
⑤⑦⑧⑥ |④-⑤-⑥-|
口口口口 |--⑦-⑧-|
77
口口口口 |①-②---|
口口口口 |----|
口口口口 |----|
口①②口 |----|
78
口口口口 |①---|
口口口口 |----|
口口口口 |----|
①口口口 |----|

不確定度: 1

最終更新:2017年08月20日 14:45