Jazz is Rad
ARM(IOSYS)+Brasscapsule

EXTREME

Level: 10
BPM: 160
Notes: 874

1
口口④口 |----|
口口口③ |----|
口口②口 |----|
口口口① |①②③④|
2
②②口① |①②--|
口④口口 |③--④|
④口口口
口③③口

口⑧口口
⑦口口口
口⑥口口 |----|
⑤口口口 |⑤⑥⑦⑧|
3
①口②② |①②--|
口口④口 |③--④|
口口口④
口③③口

口口⑧口
口口口⑦
口口⑥口 |----|
口口口⑤ |⑤⑥⑦⑧|
4
②②口① |①②--|
口④口口 |③--④|
④口口口
口③③口

口⑧口口
⑦口口口
口⑥口口 |----|
⑤口口口 |⑤⑥⑦⑧|
5
①口②② |①②--|
口口口口 |③--④|
④口口口
口③③口

口口⑩⑨
口口⑧⑦
口口⑥⑤ |-⑤⑥⑦|
口口口口 |⑧⑨⑩-|
6
③口口⑤ |-①--|
①②口④ |②--③|
②①④口 |----|
③口口⑤ |④--⑤|
7
口①④口 |----|
口②口③ |①--②|
②口③口 |----|
口①④口 |③--④|
8
①④④口 |----|
口②③口 |①--②|
②口口③ |----|
①④④口 |③--④|
9
①口口口 |---①|
⑤口④② |--②-|
口口口口 |③--④|
③口口口 |--⑤-|
10
④⑤口口 |①--②|
口⑨⑧⑦ |--③-|
⑥口①口 |④⑤-⑥|
口②③口 |-⑦⑧⑨|
11
⑤口⑦⑦ |①②③④|
⑥口口口 |-⑤⑥⑦|
口口①④
口口③②

口口口口
口口⑧⑧
口口⑨口 |--⑧-|
口口口⑨ |-⑨--|
12
⑦⑦口⑤ |①②③④|
口口口⑥ |-⑤⑥⑦|
④①口口
②③口口

口口口口
⑧⑧口口
口⑨口口 |--⑧-|
⑨口口口 |-⑨--|
13
⑤口⑦⑦ |①②③④|
⑥口口口 |-⑤⑥⑦|
口口①④
口口③②

口口口口
口口⑧⑧
口口⑩口 |--⑧-|
口⑨口⑩ |⑨⑩--|
14
④口口⑤ |①-②-③-|
④口⑥口 |④-⑤-⑥-|
①口口②
①口③口

口⑦⑧口
口⑦口⑧
⑨⑦口口 |⑦--⑧|
⑨⑦口口 |--⑨-|
15
⑤口⑦⑦ |①②③④|
⑥口口口 |-⑤⑥⑦|
口口①④
口口③②

口口口口
口口⑧⑧
口口⑨口 |--⑧-|
口口口⑨ |-⑨--|
16
⑦⑦口⑤ |①②③④|
口口口⑥ |-⑤⑥⑦|
④①口口
②③口口

口口口口
⑧⑧口口
口⑨口口 |--⑧-|
⑨口口口 |-⑨--|
17
口⑥⑤口 |①②③④|
口口⑦口 |-⑤⑥⑦|
②口口①
口④③口

⑧口口⑨
⑩口口⑪
⑫口口口 |--⑧-⑨-|
口口口口 |⑩-⑪-⑫-|
18
口③③⑩ |①--②|
⑨口口⑧ |----|
⑦②①⑥ |③④⑤⑥|
⑤①②④ |⑦⑧⑨⑩|
19
①口④⑧ |①-②-|
口②②口 |--③-|
⑥③③口 |④⑤-⑥|
⑦②②⑤ |⑦-⑧-|
20
⑩③口口 |①-②-|
⑨口④口 |③④⑤⑥|
⑧⑤口② |⑦-⑧-|
⑦①⑥口 |⑨-⑩-|
21
口口①① |--①-|
口口口① |-②--|
口口口②
口口②②

④④⑤⑤
④口口⑤
③口口口 |③--④|
③③口口 |--⑤-|
22
口口口⑩ |①-②-|
口①②⑨ |③④⑤⑥|
口③①⑧ |⑦-⑧-|
⑥⑤④⑦ |⑨-⑩-|
23
③②⑧口 |--①-|
②①①⑧ |--②-|
口⑥口⑤ |③④⑤⑥|
⑦①①④ |⑦-⑧-|
24
③②⑨③ |①-②-|
口④④⑧ |③--④|
④口⑦④ |--⑤-|
⑤①①⑥ |⑥⑦⑧⑨|
25
②②口① |①②--|
口④口口 |③--④|
④口口口
口③③口

口⑪口口
⑩口口口
口⑨⑥⑤ |-⑤⑥⑦|
⑧口口⑦ |⑧⑨⑩⑪|
26
①口②② |①②--|
口口④口 |③--④|
口口口④
口③③口

口口⑪口
口口口⑩
⑤⑥⑨口 |-⑤⑥⑦|
⑦口口⑧ |⑧⑨⑩⑪|
27
②②口① |①②--|
口④口口 |③--④|
④口口口
口③③口

口⑪口口
⑩口口口
口⑨⑥⑤ |-⑤⑥⑦|
⑧口口⑦ |⑧⑨⑩⑪|
28
①口②② |①②--|
口④④⑤ |③--④|
④⑥⑦④ |--⑤-⑥-|
⑧③③⑨ |⑦-⑧-⑨-|
29
①②③④ |①②③④|
⑤⑥⑦⑧ |⑤⑥⑦⑧|
⑨⑩⑪⑫ |⑨⑩⑪⑫|
⑬⑭⑮⑯ |⑬⑭⑮⑯|
30
①口⑤⑦ |----|
口③⑥口 |①---|
口④口口 |②-③-④-|
②口口口 |⑤-⑥-⑦-|
31
④①⑥口 |①-②③|
口⑤口⑦ |----|
口口口口 |----|
口口③② |④⑤⑥⑦|
32
口②口口 |①-②-|
口口口口 |③④⑤⑥|
口⑥④口
⑤①口③

⑦⑧口口
口口口口
口口口口 |----|
口口口口 |--⑦⑧|
33
口口⑧⑦ |①②③-|
口④①口 |-④⑤⑥|
②口口⑤ |---⑦|
口⑥③⑨ |⑧-⑨-|
34
①口口口 |①②③④|
口口②口 |--⑤⑥|
③口⑥口
口⑤④口

⑪⑦口⑧
口⑨口⑩
口口口⑫ |⑦⑧⑨⑩|
⑬口口口 |⑪⑫⑬-|
35
口⑥①口 |①②③④|
②口③⑦ |⑤-⑥⑦|
④口⑤口
口口口口

⑫口口⑪
⑬⑧口口
口⑩口⑨ |⑧⑨⑩⑪|
口⑮口⑭ |⑫⑬⑭⑮|
36
⑧口①口 |①②--|
口⑨②口 |----|
口④口⑥ |③④⑤⑥|
③⑦⑤口 |⑦-⑧⑨|
37
口口③① |①②-③|
口口②口 |④---|
口口④口
口口口口

口口口⑪
口口口口
⑨⑩口口 |⑤⑥⑦⑧|
⑤⑥⑦⑧ |⑨⑩⑪-|
38
口①②口 |①--②|
①口口② |--③④|
口口④口
口③口口

⑤口口⑥
⑦口口口
口口口⑧ |⑤---|
⑨口口口 |⑥⑦⑧⑨|
39
④⑤①⑧ |①--②|
口④②① |③--④|
口②③⑥ |⑤--⑥|
口口⑥⑦ |⑦-⑧-|
40
口④②口 |①-②③|
口口口口 |-④--|
口口①口 |----|
口③口口 |----|
41
①②口⑥ |---①②---|
口口口口 |③④⑤---⑥-|
口口口口
口⑤④③

口⑬⑩口
⑪⑦口口
口口⑧⑫ |-⑦⑧⑨|
⑨口口口 |⑩⑪⑫⑬|
42
⑧口口口 |①②③④|
口口⑤① |⑤⑥⑦⑧|
②⑥口口
口④⑦③

口口⑭⑨
口口口⑫
口口⑪口 |⑨⑩⑪-|
⑩口口⑬ |⑫-⑬-⑭-|
43
口口口口 |①---|
口⑥③口 |----|
口④⑦① |②-③④|
②口⑤口 |⑤-⑥⑦|
44
口口③③ |①-②-|
②口口③ |③---|
口口口口
口①口口

口口口口
口口口口
口口口④ |----|
口⑤⑥口 |④⑤⑥-|
45
②⑦⑧③ |①-②③|
④口①⑤ |④⑤⑥-|
⑥⑨⑩口 |⑦⑧⑨⑩|
口⑪口口 |⑪---|
46
③⑦⑫⑧ |①②③④|
⑪⑬④⑫ |⑤⑥⑦⑧|
⑤⑨⑬⑩ |⑨⑩⑪-|
①口⑥② |⑫-⑬-|
47
②口口③ |①---|
⑥口④口 |②-③④|
①⑤口口 |⑤---|
口①口口 |---⑥|
48
口口④⑦ |①--②|
口⑥口② |③--④|
口口⑤口 |⑤-⑥-|
①口口③ |--⑦-|
49
⑧②口⑨ |①--②|
④⑤⑥⑦ |③---|
口③口⑩ |④⑤⑥⑦|
①口口口 |⑧-⑨⑩|
50
⑧⑦⑥⑤ |----|
口口口口 |----|
口口口口 |①②③④|
④③②① |⑤⑥⑦⑧|
51
口口口口 |①②③④|
⑧③⑥① |⑤⑥⑦⑧|
④⑦②⑤
口口口口

口口⑭⑬
口口口⑮
口口⑯口 |⑨⑩⑪⑫|
⑫⑪⑩⑨ |⑬⑭⑮⑯|
52
②①⑭⑬ |①②③④|
⑧③⑥口 |⑤⑥⑦⑧|
④⑦⑮⑤ |⑨⑩⑪⑫|
⑫⑪⑩⑨ |⑬⑭-⑮|
53
①③⑦⑥ |--①-|
⑤⑧②④ |②-③-|
③①口⑦ |④-⑤⑥|
⑧⑤④② |-⑦-⑧|
54
③②口口 |①-②-|
④口口口 |③-④-|
②③①口
口口口④

口口口⑤
口⑧⑥口
⑨口口⑦ |⑤-⑥-⑦-|
口⑩口口 |⑧-⑨-⑩-|
55
①②③口 |①②③④|
⑧⑨⑩④ |⑤⑥-⑦|
⑫⑤⑥⑪ |⑧⑨⑩⑪|
⑦⑬⑭⑮ |⑫⑬⑭⑮|
56
①②③④ |①②③④|
⑤口口⑧ |⑤⑥⑦⑧|
⑨⑥⑦⑪ |⑨-⑩-|
⑩口口口 |--⑪-|
57
①⑤口② |①-②-|
口①②⑥ |③-④-|
⑦④③⑩ |⑤--⑥|
④⑧⑨③ |⑦⑧⑨⑩|
58
①⑨⑩⑧ |①②③④|
⑪②⑦⑫ |⑤⑥⑦⑧|
⑮⑥③⑯ |⑨⑩⑪⑫|
⑤⑬⑭④ |⑬⑭⑮⑯|
59
④③②① |----|
口口口⑩ |①②③④|
⑧口⑥口 |⑤⑥⑦⑧|
口⑦⑨⑤ |⑨-⑩-|
60
口④②⑦ |①-②-|
口口⑤口 |③-④-|
口口口① |⑤⑥-⑦|
③口⑥口 |----|
61
①①口口 |--①-|
口②④口 |--②-|
⑤⑥口口 |③--④|
⑤口③③ |⑤--⑥|
62
口口口① |①-②-|
③口口① |③-④-|
口口口④
口②口口

⑤⑥⑦⑧
口口口口
口口口口 |⑤-⑥-⑦-|
⑨口口⑩ |⑧-⑨-⑩-|
63
口⑤口口 |①②-③|
⑤⑥口口 |④-⑤⑥|
①②④③
口①③口

口口⑦口
口口⑧⑦
⑨⑩口口 |-⑦⑧-|
口⑨口口 |⑨⑩--|
64
⑤口⑦⑦ |①②③④|
⑥口口口 |-⑤⑥⑦|
口口①④
口口③②

口口口口
口口⑧⑧
口口⑨口 |--⑧-|
口口口⑨ |-⑨--|
65
⑦⑦口⑤ |①②③④|
口口口⑥ |-⑤⑥⑦|
④①口口
②③口口

口口口口
⑧⑧口口
口⑨口口 |--⑧-|
⑨口口口 |-⑨--|
66
⑤口⑦⑦ |①②③④|
⑥口口口 |-⑤⑥⑦|
口口①④
口口③②

口口口口
口口⑧⑧
口口⑩口 |--⑧-|
口⑨口⑩ |⑨⑩--|
67
④口口⑤ |①-②-③-|
④口⑥口 |④-⑤-⑥-|
①口口②
①口③口

口⑦⑧口
口⑦口⑧
⑨⑦口口 |⑦--⑧|
⑨⑦口口 |--⑨-|
68
⑤口⑦⑦ |①②③④|
⑥口口口 |-⑤⑥⑦|
口口①④
口口③②

口口口口
口口⑧⑧
口口⑨口 |--⑧-|
口口口⑨ |-⑨--|
69
⑦⑦口⑤ |①②③④|
口口口⑥ |-⑤⑥⑦|
④①口口
②③口口

口口口口
⑧⑧口口
口⑨口口 |--⑧-|
⑨口口口 |-⑨--|
70
口⑥⑤口 |①②③④|
口口⑦口 |-⑤⑥⑦|
②口口①
口④③口

⑧口口⑨
⑩口口⑪
⑫口口口 |--⑧-⑨-|
口口口口 |⑩-⑪-⑫-|
71
口⑤③⑦ |①--②|
⑤⑥④⑧ |-③④-|
⑥口②① |⑤--⑥|
口②①口 |-⑦⑧-|
72
③口口⑦ |①--②|
④⑥②⑧ |-③④-|
⑥⑤①② |⑤--⑥|
⑤口口① |-⑦⑧-|
73
口③口口 |①-②③|
③口②口 |-④⑤-|
口④⑤①
口口①⑤

⑦口⑥⑨
口⑦口⑨
⑪口口口 |⑥⑦-⑧|
⑪⑧⑩口 |⑨-⑩⑪|
74
④①⑥口 |-①②-|
口⑤②口 |③④-⑤|
口④③⑥ |⑥---|
口口口② |----|
75
口①①口 |----|
①②③口 |①---|
口④⑤① |----|
口①①口 |②③④⑤--|
76
⑦③口① |----①-|
口口④⑧ |②---③-|
口⑤口② |④-⑤-⑥-|
口口⑥口 |--⑦-⑧-|
77
口口口口 |①-②---|
口口口口 |----|
①口口口 |----|
口口口② |----|
78
口口口口 |①---|
口口口口 |----|
口口口口 |----|
口①①口 |----|

不確定度: 1

最終更新:2017年08月20日 14:44