Wandering Gravity
Nazzo-Non-Heat

ADVANCED

Level: 8
BPM: 170
Notes: 704

1
口口口口 |----|
口口口口 |----|
口口口口 |----|
口口口口 |----|
2
①①②② |①---|
口口口口 |②---|
③口口④ |③---|
③口口④ |--④-|
3
口①①口 |----|
口⑥⑦口 |①---|
口④⑤口 |--②③|
口②③口 |④⑤⑥⑦|
4
①①②② |①---|
口口口口 |②---|
③口口④ |③---|
口③④口 |--④-|
5
口①①口 |----|
口②③口 |①---|
口④⑤口 |--②③|
口⑥⑦口 |④⑤⑥⑦|
6
①①②② |①---|
口口口口 |②---|
③口口④ |③---|
③口口④ |--④-|
7
口①①口 |----|
口⑥⑦口 |①---|
口④⑤口 |--②③|
口②③口 |④⑤⑥⑦|
8
①①③③ |①--②|
口口口口 |--③-|
口口口②
口口口②

⑤⑤口口
口口口口
④口口口 |-④--|
④口⑥⑥ |⑤--⑥|
9
口口口口 |--①②|
⑤①②⑥ |③④⑤⑥|
口③④口
口口口口

口口口口
口⑬⑭口
⑦口口⑧ |⑦⑧⑨⑩|
⑨⑪⑫⑩ |⑪⑫⑬⑭|
10
①①②② |①---|
口口口口 |②---|
③口口④ |③---|
③口口④ |--④-|
11
口①①口 |----|
口⑥⑦口 |①---|
口④⑤口 |--②③|
口②③口 |④⑤⑥⑦|
12
①①②② |①---|
口口口口 |②---|
③口口④ |③---|
口③④口 |--④-|
13
口①①口 |----|
口②③口 |①---|
口④⑤口 |--②③|
口⑥⑦口 |④⑤⑥⑦|
14
①①②② |①---|
口口口口 |②---|
③口口④ |③---|
③口口④ |--④-|
15
口①①口 |----|
口⑥⑦口 |①---|
口④⑤口 |--②③|
口②③口 |④⑤⑥⑦|
16
①①③③ |①--②|
口口口口 |--③-|
口口口②
口口口②

⑤⑤口口
口口口口
④口口口 |-④--|
④口⑥⑥ |⑤--⑥|
17
口口口口 |--①-|
口①①口 |----|
口①①口 |----|
口②②口 |--②-|
18
⑩②②⑨ |-①--|
⑧口口⑦ |②---|
⑥①①⑤ |③④⑤⑥|
④口口③ |⑦⑧⑨⑩|
19
口口口口 |①---|
口①①口 |--②-|
口④③② |--③-|
口④③② |--④-|
20
口口①口 |----|
口口口① |--①-|
口口口口 |--②-|
口口②口 |----|
21
口口口口 |①---|
口①①口 |--②-|
②③④口 |--③-|
②③④口 |--④-|
22
口①口口 |----|
①口口口 |--①-|
口口口口 |--②-|
口②口口 |----|
23
口口口口 |①---|
口①①口 |--②-|
口④③② |--③-|
口④③② |--④-|
24
口口①口 |----|
口口口① |--①-|
口口口口 |--②-|
口口②口 |----|
25
③③口口 |①--②|
⑥⑥②② |--③-|
④④口口 |--④-|
①①⑤⑤ |⑤--⑥|
26
②②①① |--①-|
⑧口口⑦ |--②-|
⑥口口⑤ |--③④|
④口口③ |⑤⑥⑦⑧|
27
②③④① |①-②③|
口⑤口口 |④-⑤-|
口口口口
口口口口

⑩⑪口口
口口口口
口口⑨口 |⑥⑦⑧-|
口⑧⑦⑥ |⑨-⑩⑪|
28
口口①口 |①-②-|
⑥⑤④③ |③④⑤⑥|
口②口口
口口口口

口口口口
口口口口
⑭⑬⑫⑪ |⑦⑧⑨⑩|
⑩⑨⑧⑦ |⑪⑫⑬⑭|
29
②③④① |①-②③|
口⑤⑨⑪ |④-⑤-|
口口口口 |⑥⑦⑧-|
⑩⑧⑦⑥ |⑨-⑩⑪|
30
①②③④ |①②③④|
⑨⑩⑪⑫ |⑤⑥⑦⑧|
⑤⑥⑦⑧ |⑨⑩⑪⑫|
⑬⑭⑮⑯ |⑬⑭⑮⑯|
31
①④③② |①-②③|
口口⑤口 |④-⑤-|
口口口口
口口口口

口口⑪⑩
口口口口
口⑨口口 |⑥⑦⑧-|
⑥⑦⑧口 |⑨-⑩⑪|
32
口①口口 |①-②-|
③④⑤⑥ |③④⑤⑥|
口口②口
口口口口

⑪⑫⑬⑭
口口口口
口口口口 |⑦⑧⑨⑩|
⑦⑧⑨⑩ |⑪⑫⑬⑭|
33
⑪⑫⑬⑭ |①②③④|
⑨⑧⑦⑥ |⑤-⑥⑦|
①②③④ |⑧⑨⑩-|
⑤口口⑩ |⑪⑫⑬⑭|
34
⑮⑭⑬⑫ |①-②③|
⑦⑥⑤④ |④⑤⑥⑦|
①③②口 |⑧⑨⑩⑪|
⑪⑩⑨⑧ |⑫⑬⑭⑮|
35
口口口口 |①---|
口④③口 |②---|
口②①口 |③---|
口④③口 |--④-|
36
②口口② |----|
口口①口 |①---|
②口口② |--②-|
口口①口 |----|
37
口④③口 |①---|
口②①口 |②---|
口④③口 |③---|
口口口口 |--④-|
38
口口①口 |----|
口②②口 |①---|
口口①口 |--②-|
②口口② |----|
39
口口口口 |①---|
口④③口 |②---|
口②①口 |③---|
口④③口 |--④-|
40
②口口② |----|
口口①口 |①---|
②口口② |--②-|
口口①口 |----|
41
口④③口 |①---|
口②①口 |②---|
口④③口 |③---|
口口口口 |--④-|
42
口口①口 |----|
口②②口 |①---|
口口①口 |--②-|
②口口② |----|
43
②③④口 |①-②-|
口口口口 |③-④-|
⑧⑦⑥⑤ |⑤-⑥-|
口①①口 |⑦-⑧-|
44
⑤口口⑥ |①-②-|
①②③④ |③-④-|
口口口口 |⑤-⑥-|
⑦口口⑧ |⑦-⑧-|
45
口②②口 |①---|
口口口口 |--②-|
口①①口 |----|
③口口③ |③---|
46
②②②② |①---|
口③口口 |--②-|
口①①口 |----|
口口口口 |③---|
47
⑧⑦⑥⑤ |①-②-|
口口口口 |③-④-|
②③④口 |⑤-⑥-|
口口①口 |⑦-⑧-|
48
口⑥⑦⑤ |①-②-|
口⑧⑨口 |③-④-|
口⑩⑪口 |⑤-⑥⑦|
④③②① |⑧⑨⑩⑪|
49
②口口② |①---|
口口口口 |--②-|
口口口口 |----|
③①口③ |③---|
50
②②②② |①---|
口口口③ |--②-|
口①①口 |----|
口口口口 |③---|
51
②③④口 |①-②-|
口口口口 |③-④-|
⑧⑦⑥⑤ |⑤-⑥-|
口①①口 |⑦-⑧-|
52
⑤口口⑥ |①-②-|
①②③④ |③-④-|
口口口口 |⑤-⑥-|
⑦口口⑧ |⑦-⑧-|
53
口②②口 |①---|
口口口口 |--②-|
口①①口 |----|
③口口③ |③---|
54
②②②② |①---|
③口口口 |--②-|
口①①口 |----|
口口口口 |③---|
55
口口③口 |①---|
口口③口 |--②-|
②口口① |----|
②口口① |③---|
56
⑨①口⑧ |--①-|
⑦①口⑥ |----|
⑤口口④ |②③④⑤|
③口口② |⑥⑦⑧⑨|
57
口口口③ |①---|
口口口③ |--②-|
口②①口 |----|
口②①口 |③---|
58
①③②口 |--①-|
①⑤④口 |----|
口⑦⑥口 |②③④⑤|
口⑨⑧口 |⑥⑦⑧⑨|
59
②②口口 |①---|
口口口口 |--②-|
口口口① |----|
③③口① |③---|
60
⑩⑩口口 |①②③④|
⑧⑦⑥⑤ |⑤⑥⑦⑧|
④③②① |⑨---|
口口⑨⑨ |--⑩-|
61
口口口口 |----|
⑥⑦⑧⑨ |①---|
②③④⑤ |②③④⑤|
①①口口 |⑥⑦⑧⑨|
62
口口②② |①---|
口口口口 |--②-|
③④⑤⑥ |----|
①①口口 |③④⑤⑥|
63
③口口口 |①---|
①①口② |②---|
口口口口 |③---|
口口口④ |④---|
64
口口口口 |①---|
④口①① |②---|
口口③口 |③---|
口②口口 |④---|
65
口口①① |①---|
②③④口 |----|
口口口口 |----|
口口口口 |---②③④|
66
口口口口 |①---|
口口口① |----|
口口口口 |----|
口口口口 |----|
67
口口口口 |----|
口口口口 |----|
口口口口 |----|
口口口口 |----|
68
⑦③③⑥ |①---|
①口口① |②---|
口②②口 |③---|
口⑤④口 |④⑤⑥⑦|
69
口口口口 |①---|
口①①口 |--②-|
口④③② |--③-|
口④③② |--④-|
70
口口①口 |----|
口口口① |--①-|
口口口口 |--②-|
口口②口 |----|
71
口口口口 |①---|
口①①口 |--②-|
②③④口 |--③-|
②③④口 |--④-|
72
口①口口 |----|
①口口口 |--①-|
口口口口 |--②-|
口②口口 |----|
73
口口口口 |①---|
口①①口 |--②-|
口④③② |--③-|
口④③② |--④-|
74
口口①口 |----|
口口口① |--①-|
口口口口 |--②-|
口口②口 |----|
75
③③口口 |①--②|
⑥⑥②② |--③-|
④④口口 |--④-|
①①⑤⑤ |⑤--⑥|
76
②②①① |--①-|
⑧口口⑦ |--②-|
⑥口口⑤ |--③④|
④口口③ |⑤⑥⑦⑧|
77
②③④① |①-②③|
口⑤口口 |④-⑤-|
口口口口
口口口口

⑩⑪口口
口口口口
口口⑨口 |⑥⑦⑧-|
口⑧⑦⑥ |⑨-⑩⑪|
78
口口①口 |①-②-|
⑥⑤④③ |③④⑤⑥|
口②口口
口口口口

口口口口
口口口口
⑭⑬⑫⑪ |⑦⑧⑨⑩|
⑩⑨⑧⑦ |⑪⑫⑬⑭|
79
②③④① |①-②③|
口⑤⑨⑪ |④-⑤-|
口口口口 |⑥⑦⑧-|
⑩⑧⑦⑥ |⑨-⑩⑪|
80
①②③④ |①②③④|
⑨⑩⑪⑫ |⑤⑥⑦⑧|
⑤⑥⑦⑧ |⑨⑩⑪⑫|
⑬⑭⑮⑯ |⑬⑭⑮⑯|
81
①④③② |①-②③|
口口⑤口 |④-⑤-|
口口口口
口口口口

口口⑪⑩
口口口口
口⑨口口 |⑥⑦⑧-|
⑥⑦⑧口 |⑨-⑩⑪|
82
口①口口 |①-②-|
③④⑤⑥ |③④⑤⑥|
口口②口
口口口口

⑪⑫⑬⑭
口口口口
口口口口 |⑦⑧⑨⑩|
⑦⑧⑨⑩ |⑪⑫⑬⑭|
83
⑪⑫⑬⑭ |①②③④|
⑨⑧⑦⑥ |⑤-⑥⑦|
①②③④ |⑧⑨⑩-|
⑤口口⑩ |⑪⑫⑬⑭|
84
⑨⑨⑩⑩ |①-②③|
⑦⑥⑤④ |④⑤⑥⑦|
①③②口 |⑧-⑨-|
口口⑧口 |--⑩-|

不確定度: 1

最終更新:2017年08月20日 14:44